FujiwaraTakumi

[GJM] Sagrada Reset - 02 [03103426].mkv

May 6th, 2017
628
Never
Not a member of Pastebin yet? Sign Up, it unlocks many cool features!
  1. General
  2. Unique ID : 209162916566689394559050338643356100814 (0x9D5B4FFB3933F420AAD41056225328CE)
  3. Complete name : [GJM] Sagrada Reset - 02 [03103426].mkv
  4. Format : Matroska
  5. Format version : Version 4 / Version 2
  6. File size : 325 MiB
  7. Duration : 25 min 10 s
  8. Overall bit rate : 1 805 kb/s
  9. Encoded date : UTC 2017-04-15 19:34:08
  10. Writing application : mkvmerge v10.0.0 ('To Drown In You') 32bit
  11. Writing library : libebml v1.3.4 + libmatroska v1.4.5
  12. Attachments : GANDHISANS-BOLDITALIC.OTF / MATISSEMINORIPRO-DB.OTF / ROSARIO-BOLD.OTF / ASONGFORJENNIFER.TTF / BLOGGERSANS-BOLD.OTF / GANDHISANS-BOLD.OTF
  13.  
  14. Video
  15. ID : 1
  16. Format : AVC
  17. Format/Info : Advanced Video Codec
  18. Format profile : High 10@L5.1
  19. Format settings, CABAC : Yes
  20. Format settings, ReFrames : 16 frames
  21. Codec ID : V_MPEG4/ISO/AVC
  22. Duration : 25 min 10 s
  23. Bit rate : 1 518 kb/s
  24. Width : 1 920 pixels
  25. Height : 1 080 pixels
  26. Display aspect ratio : 16:9
  27. Frame rate mode : Constant
  28. Frame rate : 23.976 (24000/1001) FPS
  29. Color space : YUV
  30. Chroma subsampling : 4:2:0
  31. Bit depth : 10 bits
  32. Scan type : Progressive
  33. Bits/(Pixel*Frame) : 0.031
  34. Stream size : 273 MiB (84%)
  35. Writing library : x264 core 148 r2721+55 e19946b t_mod_Custom [10-bit@all X86_64]
  36. Encoding settings : cabac=1 / ref=16 / deblock=1:-2:-2 / analyse=0x3:0x133 / me=umh / subme=10 / psy=1 / fade_compensate=0.40 / psy_rd=0.80:0.15 / mixed_ref=1 / me_range=32 / chroma_me=1 / trellis=2 / 8x8dct=1 / cqm=0 / deadzone=21,11 / fast_pskip=0 / chroma_qp_offset=-3 / threads=12 / lookahead_threads=3 / sliced_threads=0 / nr=0 / decimate=1 / interlaced=0 / bluray_compat=0 / constrained_intra=0 / fgo=0 / bframes=16 / b_pyramid=2 / b_adapt=2 / b_bias=0 / direct=3 / weightb=1 / open_gop=0 / weightp=2 / keyint=250 / keyint_min=23 / scenecut=40 / intra_refresh=0 / rc_lookahead=60 / rc=crf / mbtree=1 / crf=17.5000 / qcomp=0.80 / qpmin=0:0:0 / qpmax=81:81:81 / qpstep=4 / ip_ratio=1.40 / aq=3:0.95 / aq-sensitivity=10.00 / aq-factor=1.00:1.00:1.00 / aq2=0 / aq3=0
  37. Language : English
  38. Default : Yes
  39. Forced : No
  40. Color range : Limited
  41. Color primaries : BT.709
  42. Transfer characteristics : BT.709
  43. Matrix coefficients : BT.709
  44.  
  45. Audio
  46. ID : 2
  47. Format : E-AC-3
  48. Format/Info : Enhanced Audio Coding 3
  49. Format settings, Endianness : Big
  50. Codec ID : A_EAC3
  51. Duration : 25 min 10 s
  52. Bit rate mode : Constant
  53. Bit rate : 224 kb/s
  54. Channel(s) : 2 channels
  55. Channel positions : Front: L R
  56. Sampling rate : 48.0 kHz
  57. Frame rate : 187.500 FPS (256 spf)
  58. Compression mode : Lossy
  59. Stream size : 40.3 MiB (12%)
  60. Language : English
  61. Service kind : Complete Main
  62. Default : Yes
  63. Forced : No
  64.  
  65. Text
  66. ID : 3
  67. Format : ASS
  68. Codec ID : S_TEXT/ASS
  69. Codec ID/Info : Advanced Sub Station Alpha
  70. Duration : 25 min 5 s
  71. Bit rate : 381 b/s
  72. Count of elements : 731
  73. Compression mode : Lossless
  74. Stream size : 70.1 KiB (0%)
  75. Title : No Honorifics
  76. Language : English
  77. Default : Yes
  78. Forced : No
  79.  
  80. Menu
  81. 00:00:00.000 : en:Intro
  82. 00:00:19.019 : en:Main Episode
  83. 00:23:39.917 : en:ED
RAW Paste Data