SHARE
TWEET

sample new

a guest Mar 15th, 2014 194 Never
Not a member of Pastebin yet? Sign Up, it unlocks many cool features!
  1. General
  2. ID : 1 (0x1)
  3. Complete name : E:\sample\sample.ts
  4. Format : MPEG-TS
  5. File size : 42.7 MiB
  6. Duration : 59s 808ms
  7. Overall bit rate mode : Variable
  8. Overall bit rate : 5 992 Kbps
  9. Maximum Overall bit rate : 35.5 Mbps
  10.  
  11. Video
  12. ID : 4113 (0x1011)
  13. Menu ID : 1 (0x1)
  14. Format : AVC
  15. Format/Info : Advanced Video Codec
  16. Format profile : High@L4.0
  17. Format settings, CABAC : Yes
  18. Format settings, ReFrames : 3 frames
  19. Format settings, GOP : M=4, N=28
  20. Codec ID : 27
  21. Duration : 59s 720ms
  22. Bit rate mode : Variable
  23. Bit rate : 5 502 Kbps
  24. Maximum bit rate : 40.0 Mbps
  25. Width : 1 920 pixels
  26. Height : 1 080 pixels
  27. Display aspect ratio : 16:9
  28. Frame rate : 25.000 fps
  29. Standard : Component
  30. Color space : YUV
  31. Chroma subsampling : 4:2:0
  32. Bit depth : 8 bits
  33. Scan type : Interlaced
  34. Scan order : Top Field First
  35. Bits/(Pixel*Frame) : 0.106
  36. Stream size : 39.2 MiB (92%)
  37. Color primaries : BT.709
  38. Transfer characteristics : BT.709
  39. Matrix coefficients : BT.709
  40.  
  41. Audio
  42. ID : 4352 (0x1100)
  43. Menu ID : 1 (0x1)
  44. Format : MPEG Audio
  45. Format version : Version 1
  46. Format profile : Layer 2
  47. Codec ID : 4
  48. Duration : 59s 856ms
  49. Bit rate mode : Constant
  50. Bit rate : 192 Kbps
  51. Channel(s) : 2 channels
  52. Sampling rate : 48.0 KHz
  53. Compression mode : Lossy
  54. Delay relative to video : -239ms
  55. Stream size : 1.37 MiB (3%)
  56. Language : English
RAW Paste Data
We use cookies for various purposes including analytics. By continuing to use Pastebin, you agree to our use of cookies as described in the Cookies Policy. OK, I Understand
Top