Advertisement
Guest User

Untitled

a guest
Nov 21st, 2016
154
Never
Not a member of Pastebin yet? Sign Up, it unlocks many cool features!
text 10.90 KB | None
  1. General
  2. Unique ID : 197348856911244001269377519465229855842 (0x947801DE84729F43BF3F3BE9E3862C62)
  3. Complete name : C:\Users\TaiphimHD.com\Videos\TaiphimHD.com\Jason.Bourne.2016.720p.BluRay.DTS.x264-IDE.mkv
  4. Format : Matroska
  5. Format version : Version 4 / Version 2
  6. File size : 8.35 GiB
  7. Duration : 2h 3mn
  8. Overall bit rate : 9 709 Kbps
  9. Movie name : Jason Bourne [2016] 720p BluRay - IDE
  10. Encoded date : UTC 2016-11-21 04:51:02
  11. Writing application : mkvmerge v8.3.0 ('Over the Horizon') 32bit
  12. Writing library : libebml v1.3.1 + libmatroska v1.4.2
  13. DURATION : 01:53:00.020000000
  14. NUMBER_OF_FRAMES : 1003
  15. NUMBER_OF_BYTES : 41509
  16. _STATISTICS_WRITING_APP : mkvmerge v8.3.0 ('Over the Horizon') 32bit
  17. _STATISTICS_WRITING_DATE_UTC : 2016-11-21 04:51:02
  18. _STATISTICS_TAGS : BPS DURATION NUMBER_OF_FRAMES NUMBER_OF_BYTES
  19. Attachment : Yes
  20.  
  21. Video
  22. ID : 1
  23. Format : AVC
  24. Format/Info : Advanced Video Codec
  25. Format profile : High@L4.1
  26. Format settings, CABAC : Yes
  27. Format settings, ReFrames : 12 frames
  28. Codec ID : V_MPEG4/ISO/AVC
  29. Duration : 2h 3mn
  30. Bit rate : 8 006 Kbps
  31. Width : 1 280 pixels
  32. Height : 536 pixels
  33. Display aspect ratio : 2.40:1
  34. Frame rate : 23.976 fps
  35. Color space : YUV
  36. Chroma subsampling : 4:2:0
  37. Bit depth : 8 bits
  38. Scan type : Progressive
  39. Bits/(Pixel*Frame) : 0.487
  40. Stream size : 6.89 GiB (82%)
  41. Writing library : x264 core 148 r2721 72d53ab
  42. Encoding settings : cabac=1 / ref=12 / deblock=1:-3:-3 / analyse=0x3:0x133 / me=umh / subme=11 / psy=1 / psy_rd=1.00:0.00 / mixed_ref=1 / me_range=32 / chroma_me=1 / trellis=2 / 8x8dct=1 / cqm=0 / deadzone=21,11 / fast_pskip=0 / chroma_qp_offset=-2 / threads=12 / lookahead_threads=3 / sliced_threads=0 / nr=0 / decimate=0 / interlaced=0 / bluray_compat=0 / constrained_intra=0 / bframes=10 / b_pyramid=2 / b_adapt=2 / b_bias=0 / direct=3 / weightb=1 / open_gop=0 / weightp=2 / keyint=250 / keyint_min=24 / scenecut=40 / intra_refresh=0 / rc_lookahead=250 / rc=crf / mbtree=0 / crf=16.2 / qcomp=0.65 / qpmin=0 / qpmax=69 / qpstep=4 / vbv_maxrate=62500 / vbv_bufsize=78125 / crf_max=0.0 / nal_hrd=none / filler=0 / ip_ratio=1.35 / pb_ratio=1.25 / aq=3:0.75
  43. Language : English
  44. DURATION : 02:03:11.593000000
  45. NUMBER_OF_FRAMES : 177221
  46. NUMBER_OF_BYTES : 7536891850
  47. _STATISTICS_WRITING_APP : mkvmerge v8.3.0 ('Over the Horizon') 32bit
  48. _STATISTICS_WRITING_DATE_UTC : 2016-11-21 04:51:02
  49. _STATISTICS_TAGS : BPS DURATION NUMBER_OF_FRAMES NUMBER_OF_BYTES
  50.  
  51. Audio
  52. ID : 2
  53. Format : DTS
  54. Format/Info : Digital Theater Systems
  55. Codec ID : A_DTS
  56. Duration : 2h 3mn
  57. Bit rate mode : Constant
  58. Bit rate : 1 510 Kbps
  59. Channel(s) : 6 channels
  60. Channel positions : Front: L C R, Side: L R, LFE
  61. Sampling rate : 48.0 KHz
  62. Bit depth : 24 bits
  63. Compression mode : Lossy
  64. Stream size : 1.30 GiB (16%)
  65. Language : English
  66.  
  67. Text #1
  68. ID : 3
  69. Format : UTF-8
  70. Codec ID : S_TEXT/UTF8
  71. Codec ID/Info : UTF-8 Plain Text
  72. Language : Vietnamese
  73.  
  74. Text #2
  75. ID : 4
  76. Format : UTF-8
  77. Codec ID : S_TEXT/UTF8
  78. Codec ID/Info : UTF-8 Plain Text
  79. Language : English
  80.  
  81. Text #3
  82. ID : 5
  83. Format : UTF-8
  84. Codec ID : S_TEXT/UTF8
  85. Codec ID/Info : UTF-8 Plain Text
  86. Title : SDH
  87. Language : English
  88.  
  89. Text #4
  90. ID : 6
  91. Format : UTF-8
  92. Codec ID : S_TEXT/UTF8
  93. Codec ID/Info : UTF-8 Plain Text
  94. Language : Bulgarian
  95.  
  96. Text #5
  97. ID : 7
  98. Format : PGS
  99. Muxing mode : zlib
  100. Codec ID : S_HDMV/PGS
  101. Codec ID/Info : The same subtitle format used on BDs/HD-DVDs
  102. Title : Cantonese
  103. Language : Chinese
  104.  
  105. Text #6
  106. ID : 8
  107. Format : PGS
  108. Muxing mode : zlib
  109. Codec ID : S_HDMV/PGS
  110. Codec ID/Info : The same subtitle format used on BDs/HD-DVDs
  111. Title : Traditional
  112. Language : Chinese
  113.  
  114. Text #7
  115. ID : 9
  116. Format : PGS
  117. Muxing mode : zlib
  118. Codec ID : S_HDMV/PGS
  119. Codec ID/Info : The same subtitle format used on BDs/HD-DVDs
  120. Title : Simplified
  121. Language : Chinese
  122.  
  123. Text #8
  124. ID : 10
  125. Format : UTF-8
  126. Codec ID : S_TEXT/UTF8
  127. Codec ID/Info : UTF-8 Plain Text
  128. Language : Danish
  129.  
  130. Text #9
  131. ID : 11
  132. Format : UTF-8
  133. Codec ID : S_TEXT/UTF8
  134. Codec ID/Info : UTF-8 Plain Text
  135. Language : Dutch
  136.  
  137. Text #10
  138. ID : 12
  139. Format : UTF-8
  140. Codec ID : S_TEXT/UTF8
  141. Codec ID/Info : UTF-8 Plain Text
  142. Language : Estonian
  143.  
  144. Text #11
  145. ID : 13
  146. Format : UTF-8
  147. Codec ID : S_TEXT/UTF8
  148. Codec ID/Info : UTF-8 Plain Text
  149. Language : Finnish
  150.  
  151. Text #12
  152. ID : 14
  153. Format : UTF-8
  154. Codec ID : S_TEXT/UTF8
  155. Codec ID/Info : UTF-8 Plain Text
  156. Language : French
  157.  
  158. Text #13
  159. ID : 15
  160. Format : UTF-8
  161. Codec ID : S_TEXT/UTF8
  162. Codec ID/Info : UTF-8 Plain Text
  163. Language : Greek
  164.  
  165. Text #14
  166. ID : 16
  167. Format : UTF-8
  168. Codec ID : S_TEXT/UTF8
  169. Codec ID/Info : UTF-8 Plain Text
  170. Language : Croatian
  171.  
  172. Text #15
  173. ID : 17
  174. Format : UTF-8
  175. Codec ID : S_TEXT/UTF8
  176. Codec ID/Info : UTF-8 Plain Text
  177. Language : Hungarian
  178.  
  179. Text #16
  180. ID : 18
  181. Format : UTF-8
  182. Codec ID : S_TEXT/UTF8
  183. Codec ID/Info : UTF-8 Plain Text
  184. Language : Italian
  185.  
  186. Text #17
  187. ID : 19
  188. Format : PGS
  189. Muxing mode : zlib
  190. Codec ID : S_HDMV/PGS
  191. Codec ID/Info : The same subtitle format used on BDs/HD-DVDs
  192. Language : Korean
  193.  
  194. Text #18
  195. ID : 20
  196. Format : UTF-8
  197. Codec ID : S_TEXT/UTF8
  198. Codec ID/Info : UTF-8 Plain Text
  199. Language : Norwegian
  200.  
  201. Text #19
  202. ID : 21
  203. Format : UTF-8
  204. Codec ID : S_TEXT/UTF8
  205. Codec ID/Info : UTF-8 Plain Text
  206. Language : Portuguese
  207.  
  208. Text #20
  209. ID : 22
  210. Format : UTF-8
  211. Codec ID : S_TEXT/UTF8
  212. Codec ID/Info : UTF-8 Plain Text
  213. Language : Russian
  214.  
  215. Text #21
  216. ID : 23
  217. Format : UTF-8
  218. Codec ID : S_TEXT/UTF8
  219. Codec ID/Info : UTF-8 Plain Text
  220. Language : Spanish
  221.  
  222. Text #22
  223. ID : 24
  224. Format : UTF-8
  225. Codec ID : S_TEXT/UTF8
  226. Codec ID/Info : UTF-8 Plain Text
  227. Language : Slovenian
  228.  
  229. Text #23
  230. ID : 25
  231. Format : PGS
  232. Muxing mode : zlib
  233. Codec ID : S_HDMV/PGS
  234. Codec ID/Info : The same subtitle format used on BDs/HD-DVDs
  235. Language : Thai
  236.  
  237. Text #24
  238. ID : 26
  239. Format : UTF-8
  240. Codec ID : S_TEXT/UTF8
  241. Codec ID/Info : UTF-8 Plain Text
  242. Language : Ukrainian
  243.  
  244. Menu
  245. 00:00:00.000 : en:Chapter 1
  246. 00:04:04.661 : en:Chapter 2
  247. 00:08:21.543 : en:Chapter 3
  248. 00:13:32.687 : en:Chapter 4
  249. 00:18:28.316 : en:Chapter 5
  250. 00:24:07.237 : en:Chapter 6
  251. 00:29:21.259 : en:Chapter 7
  252. 00:36:15.548 : en:Chapter 8
  253. 00:42:20.663 : en:Chapter 9
  254. 00:48:22.441 : en:Chapter 10
  255. 00:55:12.184 : en:Chapter 11
  256. 01:01:09.666 : en:Chapter 12
  257. 01:08:32.483 : en:Chapter 13
  258. 01:16:23.329 : en:Chapter 14
  259. 01:24:45.330 : en:Chapter 15
  260. 01:29:06.550 : en:Chapter 16
  261. 01:37:52.909 : en:Chapter 17
  262. 01:44:26.343 : en:Chapter 18
  263. 01:48:03.727 : en:Chapter 19
  264. 01:54:01.209 : en:Chapter 20
Advertisement
RAW Paste Data Copied
Advertisement