Guest User

Untitled

a guest
Feb 15th, 2020
223
Never
Not a member of Pastebin yet? Sign Up, it unlocks many cool features!
  1. DISC INFO:
  2.  
  3. Disc Title: Frozen II - Ultra HD™
  4. Disc Label: Frozen.II.2019.UHD.BluRay.2160p.HEVC.TrueHD.Atmos.7.1-BeyondHD
  5. Disc Size: 65,110,109,341 bytes
  6. Protection: AACS2
  7. Extras: Ultra HD, BD-Java
  8. BDInfo: 0.7.5.5
  9.  
  10. PLAYLIST REPORT:
  11.  
  12. Name: 00004.MPLS
  13. Length: 1:43:13.645 (h:m:s.ms)
  14. Size: 0 bytes
  15. Total Bitrate: 0.00 Mbps
  16.  
  17. (*) Indicates included stream hidden by this playlist.
  18.  
  19. VIDEO:
  20.  
  21. Codec Bitrate Description
  22. ----- ------- -----------
  23. MPEG-H HEVC Video 0 kbps 2160p / 23.976 fps / 16:9 / Main 10 @ Level 5.1 @ High / 10 bits / HDR10 / BT.2020
  24.  
  25. AUDIO:
  26.  
  27. Codec Language Bitrate Description
  28. ----- -------- ------- -----------
  29. * Dolby TrueHD/Atmos Audio English 0 kbps 7.1 / 48 kHz / 24-bit (AC3 Embedded: 5.1 / 48 kHz / 640 kbps / DN -27dB)
  30. Dolby Digital Audio English 320 kbps 2.0 / 48 kHz / 320 kbps / DN -27dB
  31. * Dolby Digital Plus Audio French 1024 kbps 7.1 / 48 kHz / 1024 kbps / DN -27dB (AC3 Embedded: 5.1 / 48 kHz / 576 kbps / DN -27dB)
  32. * Dolby Digital Plus Audio Spanish 1024 kbps 7.1 / 48 kHz / 1024 kbps / DN -27dB (AC3 Embedded: 5.1 / 48 kHz / 576 kbps / DN -27dB)
  33. * Dolby Digital Plus Audio Japanese 1024 kbps 7.1 / 48 kHz / 1024 kbps / DN -27dB (AC3 Embedded: 5.1 / 48 kHz / 576 kbps / DN -27dB)
  34.  
  35. SUBTITLES:
  36.  
  37. Codec Language Bitrate Description
  38. ----- -------- ------- -----------
  39. * Presentation Graphics English 0.000 kbps
  40. * Presentation Graphics French 0.000 kbps
  41. * Presentation Graphics Spanish 0.000 kbps
  42. * Presentation Graphics Japanese 0.000 kbps
  43. * Presentation Graphics English 0.000 kbps
  44. * Presentation Graphics French 0.000 kbps
  45. * Presentation Graphics Spanish 0.000 kbps
  46. * Presentation Graphics Japanese 0.000 kbps
  47.  
  48. FILES:
  49.  
  50. Name Time In Length Size Total Bitrate
  51. ---- ------- ------ ---- -------------
  52. 00055.M2TS 0:00:00.000 0:06:47.949 0 0
  53. 00041.M2TS 0:06:47.949 0:01:23.374 0 0
  54. 00056.M2TS 0:08:11.324 1:25:20.740 0 0
  55. 00057.M2TS 1:33:32.064 0:00:25.942 0 0
  56. 00060.M2TS 1:33:58.007 0:08:36.849 0 0
  57. 00058.M2TS 1:42:34.857 0:00:37.120 0 0
  58. 00059.M2TS 1:43:11.977 0:00:01.668 0 0
RAW Paste Data