SHARE
TWEET

Untitled

a guest Mar 13th, 2012 11 Never
Not a member of Pastebin yet? Sign Up, it unlocks many cool features!
  1. ffmpeg version N-38292-ga4c22e3 Copyright (c) 2000-2012 the FFmpeg developers
  2.   built on Feb 27 2012 14:50:39 with gcc 4.6.2
  3.   configuration: --enable-gpl --enable-version3 --disable-w32threads --enable-runtime-cpudetect --enable-avisynth --enable-bzlib --enable-frei0r --enable-libopencore-amrnb --enable-libopencore-amrwb --enable-libfreetype --enable-libgsm --enable-libmp3lame --enable-libopenjpeg --enable-librtmp --enable-libschroedinger --enable-libspeex --enable-libtheora --enable-libvo-aacenc --enable-libvo-amrwbenc --enable-libvorbis --enable-libvpx --enable-libx264 --enable-libxavs --enable-libxvid --enable-zlib
  4.   libavutil      51. 41.100 / 51. 41.100
  5.   libavcodec     54.  4.100 / 54.  4.100
  6.   libavformat    54.  1.100 / 54.  1.100
  7.   libavdevice    53.  4.100 / 53.  4.100
  8.   libavfilter     2. 62.101 /  2. 62.101
  9.   libswscale      2.  1.100 /  2.  1.100
  10.   libswresample   0.  7.100 /  0.  7.100
  11.   libpostproc    52.  0.100 / 52.  0.100
  12. [dshow @ 0217AAE0] Estimating duration from bitrate, this may be inaccurate
  13. Input #0, dshow, from 'video=screen-capture-
  14. recorder:audio=SoundMAX Digital Audio':
  15.   Duration: N/A, start: 5175.786000, bitrate: 1411 kb/s
  16.     Stream #0:0: Video: rawvideo, bgr24, 1024x768, 30 tbr, 10000k tbn, 30 tbc
  17.     Stream #0:1: Audio: pcm_s16le, 44100 Hz, 2 channels, s16, 1411 kb/s
  18. Incompatible pixel format 'bgr24' for codec 'libx264', auto-selecting format 'yuv420p'
  19. [buffer @ 02563AE0] w:1024 h:768 pixfmt:bgr24 tb:1/1000000 sar:0/1 sws_param:
  20. [buffersink @ 02173EC0] auto-inserting filter 'auto-inserted scale 0' between the filter 'src' and the filter 'out'
  21. [scale @ 02582520] w:1024 h:768 fmt:bgr24 -> w:1024 h:768 fmt:yuv420p flags:0x4
  22. [libx264 @ 02563C60] using cpu capabilities: MMX2 SSE2 SSE3 Cache64
  23. [libx264 @ 02563C60] profile Constrained Baseline, level 3.1
  24. [mpegts @ 02179020] muxrate VBR, pcr every 1 pkts, sdt every 200, pat/pmt every 40 pkts
  25. Output #0, mpegts, to 'udp://192.168.5.215:48550':
  26.   Metadata:
  27.     encoder         : Lavf54.1.100
  28.     Stream #0:0: Video: h264, yuv420p, 1024x768, q=-1--1, 90k tbn, 10 tbc
  29.     Stream #0:1: Audio: mp2, 22050 Hz, 2 channels, s16, 32 kb/s
  30. Stream mapping:
  31.   Stream #0:0 -> #0:0 (rawvideo -> libx264)
  32.   Stream #0:1 -> #0:1 (pcm_s16le -> mp2)
  33. Press [q] to stop, [?] for help
  34. [dshow @ 0217AAE0] real-time buffer 155% full! frame dropped!
  35.     Last message repeated 2 times
  36. frame=    8 fps=  0 q=16.0 size=     215kB time=00:00:00.40 bitrate=4395.4kbits/s  
  37. frame=   14 fps= 13 q=11.0 size=     362kB time=00:00:00.94 bitrate=3152.2kbits/s dup=0 drop=2  
  38. frame=   20 fps= 12 q=21.0 size=     429kB time=00:00:01.41 bitrate=2488.5kbits/s dup=0 drop=3  
  39. frame=   25 fps= 12 q=20.0 size=     534kB time=00:00:01.93 bitrate=2261.8kbits/s dup=0 drop=5  
  40. frame=   30 fps= 11 q=20.0 size=     714kB time=00:00:02.40 bitrate=2434.4kbits/s dup=0 drop=7  
  41. frame=   35 fps= 11 q=19.0 size=     894kB time=00:00:02.92 bitrate=2503.0kbits/s dup=0 drop=10  
  42. frame=   40 fps= 11 q=20.0 size=    1053kB time=00:00:03.44 bitrate=2502.8kbits/s dup=0 drop=12  
  43. frame=   46 fps= 11 q=19.0 size=    1236kB time=00:00:03.91 bitrate=2584.7kbits/s dup=0 drop=14  
  44. frame=   51 fps= 11 q=18.0 size=    1393kB time=00:00:04.44 bitrate=2569.9kbits/s dup=0 drop=17  
  45. frame=   56 fps= 11 q=18.0 size=    1627kB time=00:00:05.20 bitrate=2562.6kbits/s dup=0 drop=19  
  46. frame=   61 fps= 11 q=18.0 size=    1778kB time=00:00:05.70 bitrate=2555.5kbits/s dup=0 drop=21  
  47. frame=   66 fps= 10 q=19.0 size=    1846kB time=00:00:05.90 bitrate=2561.8kbits/s dup=0 drop=24  
  48. frame=   71 fps= 10 q=18.0 size=    1995kB time=00:00:06.42 bitrate=2543.4kbits/s dup=0 drop=26  
  49. frame=   76 fps= 10 q=18.0 size=    2228kB time=00:00:07.20 bitrate=2535.1kbits/s dup=0 drop=28  
  50. frame=   81 fps= 10 q=18.0 size=    2381kB time=00:00:07.70 bitrate=2533.4kbits/s dup=0 drop=30  
  51. frame=   86 fps= 10 q=20.0 size=    2523kB time=00:00:08.20 bitrate=2520.3kbits/s dup=0 drop=32  
  52. frame=   91 fps= 10 q=16.0 size=    2675kB time=00:00:08.70 bitrate=2518.4kbits/s dup=0 drop=34  
  53. frame=   96 fps= 10 q=13.0 size=    2727kB time=00:00:08.93 bitrate=2500.5kbits/s dup=0 drop=37  
  54. frame=  101 fps= 10 q=18.0 size=    3010kB time=00:00:09.70 bitrate=2541.9kbits/s dup=0 drop=38  
  55. frame=  106 fps= 10 q=16.0 size=    3176kB time=00:00:10.20 bitrate=2551.0kbits/s dup=0 drop=40  
  56. frame=  111 fps= 10 q=16.0 size=    3316kB time=00:00:10.70 bitrate=2538.5kbits/s dup=0 drop=42  
  57. frame=  116 fps= 10 q=15.0 size=    3457kB time=00:00:11.20 bitrate=2528.7kbits/s dup=0 drop=44  
  58. frame=  122 fps= 10 q=16.0 size=    3618kB time=00:00:11.80 bitrate=2511.6kbits/s dup=0 drop=46  
  59. frame=  127 fps= 10 q=16.0 size=    3749kB time=00:00:12.30 bitrate=2496.8kbits/s dup=0 drop=48  
  60. frame=  131 fps= 10 q=16.0 size=    3847kB time=00:00:12.70 bitrate=2481.7kbits/s dup=0 drop=51  
  61. frame=  137 fps= 10 q=15.0 size=    3991kB time=00:00:13.30 bitrate=2458.4kbits/s dup=0 drop=53  
  62. frame=  143 fps= 10 q=16.0 size=    4141kB time=00:00:13.90 bitrate=2440.6kbits/s dup=0 drop=55  
  63. frame=  148 fps= 10 q=16.0 size=    4300kB time=00:00:14.40 bitrate=2446.2kbits/s dup=0 drop=58  
  64. frame=  153 fps= 10 q=16.0 size=    4452kB time=00:00:14.90 bitrate=2447.8kbits/s dup=0 drop=60  
  65. frame=  159 fps= 10 q=16.0 size=    4584kB time=00:00:15.41 bitrate=2436.6kbits/s dup=0 drop=62  
  66. frame=  164 fps= 10 q=17.0 size=    4726kB time=00:00:15.93 bitrate=2429.4kbits/s dup=0 drop=64  
  67. frame=  169 fps= 10 q=18.0 size=    4884kB time=00:00:16.40 bitrate=2439.0kbits/s dup=0 drop=67  
  68. frame=  174 fps= 10 q=18.0 size=    5032kB time=00:00:16.92 bitrate=2435.3kbits/s dup=0 drop=69  
  69. frame=  180 fps= 10 q=17.0 size=    5186kB time=00:00:17.39 bitrate=2441.9kbits/s dup=0 drop=71  
  70. frame=  185 fps= 10 q=19.0 size=    5342kB time=00:00:17.92 bitrate=2442.2kbits/s dup=0 drop=73  
  71. frame=  190 fps= 10 q=17.0 size=    5525kB time=00:00:18.44 bitrate=2454.2kbits/s dup=0 drop=75  
  72. frame=  195 fps= 10 q=17.0 size=    5686kB time=00:00:18.91 bitrate=2463.1kbits/s dup=0 drop=77  
  73. frame=  200 fps= 10 q=17.0 size=    5848kB time=00:00:19.43 bitrate=2464.9kbits/s dup=0 drop=79  
  74. frame=  205 fps= 10 q=17.0 size=    5998kB time=00:00:19.90 bitrate=2468.6kbits/s dup=0 drop=81  
  75. frame=  211 fps= 10 q=21.0 size=    6131kB time=00:00:20.42 bitrate=2458.7kbits/s dup=0 drop=82  
  76. frame=  216 fps= 10 q=20.0 size=    6320kB time=00:00:20.89 bitrate=2477.5kbits/s dup=0 drop=84  
  77. frame=  221 fps= 10 q=17.0 size=    6592kB time=00:00:21.70 bitrate=2488.5kbits/s dup=0 drop=86  
  78. frame=  226 fps= 10 q=18.0 size=    6705kB time=00:00:22.20 bitrate=2474.4kbits/s dup=0 drop=88  
  79. frame=  231 fps= 10 q=20.0 size=    6823kB time=00:00:22.70 bitrate=2462.2kbits/s dup=0 drop=89  
  80. frame=  236 fps= 10 q=19.0 size=    6908kB time=00:00:22.93 bitrate=2467.3kbits/s dup=0 drop=91  
  81. frame=  241 fps= 10 q=17.0 size=    7209kB time=00:00:23.70 bitrate=2491.8kbits/s dup=0 drop=93  
  82. frame=  246 fps= 10 q=14.0 size=    7251kB time=00:00:23.92 bitrate=2482.3kbits/s dup=0 drop=95  
  83. frame=  251 fps= 10 q=12.0 size=    7383kB time=00:00:24.70 bitrate=2448.6kbits/s dup=0 drop=97  
  84. frame=  256 fps= 10 q=19.0 size=    7425kB time=00:00:24.92 bitrate=2440.8kbits/s dup=0 drop=99  
  85. frame=  261 fps= 10 q=12.0 size=    7765kB time=00:00:25.70 bitrate=2475.1kbits/s dup=0 drop=101  
  86. frame=  266 fps= 10 q=10.0 size=    7821kB time=00:00:26.20 bitrate=2445.3kbits/s dup=0 drop=103  
  87. frame=  271 fps= 10 q=11.0 size=    7870kB time=00:00:26.70 bitrate=2414.7kbits/s dup=0 drop=106  
  88. frame=  276 fps= 10 q=11.0 size=    7912kB time=00:00:27.20 bitrate=2383.0kbits/s dup=0 drop=108  
  89. frame=  281 fps= 10 q=12.0 size=    7959kB time=00:00:27.70 bitrate=2353.8kbits/s dup=0 drop=111  
  90. frame=  286 fps= 10 q=11.0 size=    7976kB time=00:00:27.89 bitrate=2342.0kbits/s dup=0 drop=114  
  91. frame=  291 fps= 10 q=12.0 size=    8042kB time=00:00:28.70 bitrate=2295.5kbits/s dup=0 drop=116  
  92. frame=  296 fps= 10 q=9.0 size=    8076kB time=00:00:29.20 bitrate=2265.8kbits/s dup=0 drop=118  
  93. frame=  301 fps= 10 q=18.0 size=    8128kB time=00:00:29.70 bitrate=2241.9kbits/s dup=0 drop=120  
  94. frame=  306 fps= 10 q=16.0 size=    8255kB time=00:00:30.20 bitrate=2239.2kbits/s dup=0 drop=122  
  95. frame=  311 fps= 10 q=23.0 size=    8393kB time=00:00:30.70 bitrate=2239.6kbits/s dup=0 drop=124  
  96. frame=  317 fps= 10 q=22.0 size=    8686kB time=00:00:31.30 bitrate=2273.4kbits/s dup=0 drop=126  
  97. frame=  322 fps= 10 q=21.0 size=    8970kB time=00:00:31.80 bitrate=2310.9kbits/s dup=0 drop=128  
  98. frame=  328 fps= 10 q=22.0 size=    9311kB time=00:00:32.40 bitrate=2354.1kbits/s dup=0 drop=129  
  99. frame=  333 fps= 10 q=21.0 size=    9521kB time=00:00:32.90 bitrate=2370.7kbits/s dup=0 drop=132  
  100. frame=  339 fps= 10 q=19.0 size=    9724kB time=00:00:33.43 bitrate=2382.5kbits/s dup=0 drop=133  
  101. frame=  344 fps= 10 q=19.0 size=    9912kB time=00:00:33.90 bitrate=2394.7kbits/s dup=0 drop=135  
  102. frame=  349 fps= 10 q=19.0 size=   10113kB time=00:00:34.42 bitrate=2406.2kbits/s dup=0 drop=137  
  103. frame=  354 fps= 10 q=19.0 size=   10331kB time=00:00:34.89 bitrate=2424.9kbits/s dup=0 drop=139  
  104. frame=  360 fps= 10 q=21.0 size=   10588kB time=00:00:35.42 bitrate=2448.8kbits/s dup=0 drop=140  
  105. frame=  365 fps= 10 q=21.0 size=   10851kB time=00:00:35.94 bitrate=2472.9kbits/s dup=0 drop=142  
  106. frame=  370 fps= 10 q=22.0 size=   11113kB time=00:00:36.41 bitrate=2499.9kbits/s dup=0 drop=144  
  107. real-time buffer 155% full! frame dropped!
  108. frame=  376 fps= 10 q=20.0 size=   11306kB time=00:00:36.93 bitrate=2507.4kbits/s dup=0 drop=145  
  109. frame=  381 fps= 10 q=20.0 size=   11511kB time=00:00:37.40 bitrate=2520.8kbits/s dup=0 drop=146  
  110. frame=  386 fps= 10 q=20.0 size=   11837kB time=00:00:38.20 bitrate=2538.5kbits/s dup=0 drop=148  
  111. frame=  391 fps= 10 q=20.0 size=   12036kB time=00:00:38.70 bitrate=2547.7kbits/s dup=0 drop=150  
  112. frame=  396 fps= 10 q=21.0 size=   12244kB time=00:00:39.20 bitrate=2558.7kbits/s dup=0 drop=152  
  113. frame=  401 fps= 10 q=21.0 size=   12459kB time=00:00:39.70 bitrate=2570.9kbits/s dup=0 drop=153  
  114. frame=  406 fps= 10 q=21.0 size=   12683kB time=00:00:40.20 bitrate=2584.6kbits/s dup=0 drop=155  
  115. frame=  411 fps= 10 q=21.0 size=   12899kB time=00:00:40.70 bitrate=2596.3kbits/s dup=0 drop=157  
  116. frame=  416 fps= 10 q=20.0 size=   12978kB time=00:00:40.90 bitrate=2599.0kbits/s dup=0 drop=159  
  117. frame=  421 fps= 10 q=21.0 size=   13246kB time=00:00:41.70 bitrate=2602.2kbits/s dup=0 drop=160  
  118. frame=  426 fps= 10 q=21.0 size=   13445kB time=00:00:42.20 bitrate=2610.0kbits/s dup=0 drop=162  
  119. frame=  431 fps= 10 q=21.0 size=   13636kB time=00:00:42.70 bitrate=2616.0kbits/s dup=0 drop=164  
  120. frame=  436 fps= 10 q=20.0 size=   13829kB time=00:00:43.20 bitrate=2622.4kbits/s dup=0 drop=165  
  121. real-time buffer 158% full! frame dropped!
  122. frame=  441 fps= 10 q=22.0 size=   14108kB time=00:00:43.70 bitrate=2644.8kbits/s dup=0 drop=165  
  123. frame=  447 fps= 10 q=21.0 size=   14343kB time=00:00:44.30 bitrate=2652.3kbits/s dup=0 drop=167  
  124. frame=  453 fps= 10 q=21.0 size=   14553kB time=00:00:44.90 bitrate=2655.2kbits/s dup=0 drop=168  
  125. frame=  458 fps= 10 q=20.0 size=   14715kB time=00:00:45.40 bitrate=2655.1kbits/s dup=0 drop=169  
  126. frame=  463 fps= 10 q=21.0 size=   14911kB time=00:00:45.90 bitrate=2661.2kbits/s dup=0 drop=170  
  127. frame=  468 fps= 10 q=20.0 size=   15108kB time=00:00:46.40 bitrate=2667.3kbits/s dup=0 drop=172  
  128. frame=  474 fps= 10 q=18.0 size=   15302kB time=00:00:46.91 bitrate=2671.9kbits/s dup=0 drop=173  
  129. frame=  479 fps= 10 q=20.0 size=   15495kB time=00:00:47.43 bitrate=2675.7kbits/s dup=0 drop=175  
  130. frame=  485 fps= 10 q=19.0 size=   15710kB time=00:00:47.90 bitrate=2686.3kbits/s dup=0 drop=176  
  131. frame=  490 fps= 10 q=19.0 size=   15925kB time=00:00:48.43 bitrate=2693.6kbits/s dup=0 drop=178  
  132. frame=  495 fps= 10 q=20.0 size=   16130kB time=00:00:48.90 bitrate=2702.2kbits/s dup=0 drop=180  
  133. frame=  501 fps= 10 q=17.0 size=   16348kB time=00:00:49.42 bitrate=2709.6kbits/s dup=0 drop=181  
  134. frame=  506 fps= 10 q=22.0 size=   16689kB time=00:00:50.20 bitrate=2723.5kbits/s dup=0 drop=183  
  135. frame=  511 fps= 10 q=22.0 size=   16948kB time=00:00:50.70 bitrate=2738.5kbits/s dup=0 drop=185  
  136. frame=  516 fps= 10 q=21.0 size=   17163kB time=00:00:51.20 bitrate=2746.0kbits/s dup=0 drop=186  
  137. frame=  521 fps= 10 q=20.0 size=   17365kB time=00:00:51.70 bitrate=2751.6kbits/s dup=0 drop=188  
  138. frame=  526 fps= 10 q=22.0 size=   17447kB time=00:00:51.93 bitrate=2752.2kbits/s dup=0 drop=190  
  139. frame=  531 fps= 10 q=20.0 size=   17636kB time=00:00:52.40 bitrate=2757.1kbits/s dup=0 drop=192  
  140. frame=  536 fps= 10 q=19.0 size=   17898kB time=00:00:53.20 bitrate=2756.0kbits/s dup=0 drop=193  
  141. frame=  541 fps= 10 q=20.0 size=   18073kB time=00:00:53.70 bitrate=2757.1kbits/s dup=0 drop=195  
  142. frame=  546 fps= 10 q=21.0 size=   18265kB time=00:00:54.20 bitrate=2760.6kbits/s dup=0 drop=197  
  143. frame=  551 fps= 10 q=20.0 size=   18468kB time=00:00:54.70 bitrate=2765.8kbits/s dup=0 drop=199  
  144. frame=  556 fps= 10 q=20.0 size=   18654kB time=00:00:55.20 bitrate=2768.3kbits/s dup=0 drop=201  
  145. frame=  561 fps= 10 q=20.0 size=   18862kB time=00:00:55.70 bitrate=2774.1kbits/s dup=0 drop=203  
  146. frame=  566 fps= 10 q=19.0 size=   19080kB time=00:00:56.20 bitrate=2781.1kbits/s dup=0 drop=205  
  147. frame=  571 fps= 10 q=19.0 size=   19282kB time=00:00:56.70 bitrate=2785.9kbits/s dup=0 drop=207  
  148. frame=  576 fps= 10 q=20.0 size=   19493kB time=00:00:57.20 bitrate=2791.8kbits/s dup=0 drop=209  
  149. frame=  581 fps= 10 q=20.0 size=   19571kB time=00:00:57.41 bitrate=2792.3kbits/s dup=0 drop=211  
  150. frame=  586 fps= 10 q=19.0 size=   19892kB time=00:00:58.20 bitrate=2799.9kbits/s dup=0 drop=212  
  151. frame=  591 fps= 10 q=19.0 size=   20103kB time=00:00:58.70 bitrate=2805.5kbits/s dup=0 drop=214  
  152. frame=  596 fps= 10 q=20.0 size=   20309kB time=00:00:59.20 bitrate=2810.3kbits/s dup=0 drop=216  
  153. frame=  601 fps= 10 q=20.0 size=   20520kB time=00:00:59.70 bitrate=2815.8kbits/s dup=0 drop=218  
  154. frame=  607 fps= 10 q=22.0 size=   20779kB time=00:01:00.30 bitrate=2822.9kbits/s dup=0 drop=220  
  155. frame=  612 fps= 10 q=21.0 size=   20983kB time=00:01:00.80 bitrate=2827.2kbits/s dup=0 drop=222  
  156. real-time buffer 155% full! frame dropped!
  157. frame=  617 fps= 10 q=21.0 size=   21026kB time=00:01:00.91 bitrate=2827.6kbits/s dup=0 drop=224  
  158. real-time buffer 155% full! frame dropped!
  159. frame=  622 fps= 10 q=20.0 size=   21393kB time=00:01:01.80 bitrate=2835.8kbits/s dup=0 drop=226  
  160. frame=  628 fps= 10 q=20.0 size=   21632kB time=00:01:02.40 bitrate=2840.0kbits/s dup=0 drop=227  
  161. frame=  633 fps= 10 q=20.0 size=   21844kB time=00:01:02.90 bitrate=2845.0kbits/s dup=0 drop=229  
  162. frame=  638 fps= 10 q=20.0 size=   22062kB time=00:01:03.40 bitrate=2850.7kbits/s dup=0 drop=231  
  163. frame=  643 fps= 10 q=19.0 size=   22288kB time=00:01:03.89 bitrate=2857.5kbits/s dup=0 drop=233  
  164. frame=  648 fps= 10 q=19.0 size=   22486kB time=00:01:04.40 bitrate=2860.4kbits/s dup=0 drop=235  
  165. frame=  653 fps= 10 q=19.0 size=   22730kB time=00:01:04.90 bitrate=2869.1kbits/s dup=0 drop=237  
  166. frame=  659 fps= 10 q=20.0 size=   22910kB time=00:01:05.41 bitrate=2869.2kbits/s dup=0 drop=238  
  167. frame=  664 fps= 10 q=20.0 size=   23059kB time=00:01:05.93 bitrate=2865.0kbits/s dup=0 drop=240  
  168. frame=  669 fps= 10 q=21.0 size=   23206kB time=00:01:06.40 bitrate=2862.9kbits/s dup=0 drop=242  
  169. frame=  675 fps= 10 q=20.0 size=   23413kB time=00:01:06.92 bitrate=2865.9kbits/s dup=0 drop=243  
  170. frame=  680 fps= 10 q=20.0 size=   23620kB time=00:01:07.39 bitrate=2871.0kbits/s dup=0 drop=245  
  171. real-time buffer 155% full! frame dropped!
  172. [dshow @ 0217AAE0] real-time buffer 155% full! frame dropped!
  173.     Last message repeated 2 times
  174. frame=  684 fps= 10 q=20.0 size=   23834kB time=00:01:07.91 bitrate=2874.8kbits/s dup=0 drop=245  
  175. real-time buffer 155% full! frame dropped!
  176. frame=  690 fps= 10 q=23.0 size=   24141kB time=00:01:08.60 bitrate=2882.8kbits/s dup=0 drop=245  
  177. real-time buffer 155% full! frame dropped!
  178. frame=  695 fps= 10 q=23.0 size=   24456kB time=00:01:09.10 bitrate=2899.4kbits/s dup=0 drop=245  
  179. real-time buffer 155% full! frame dropped!
  180. [dshow @ 0217AAE0] real-time buffer 155% full! frame dropped!
  181. frame=  700 fps= 10 q=23.0 size=   24811kB time=00:01:09.60 bitrate=2920.3kbits/s dup=0 drop=245  
  182. real-time buffer 155% full! frame dropped!
  183. [dshow @ 0217AAE0] real-time buffer 158% full! frame dropped!
  184. frame=  704 fps= 10 q=24.0 size=   25135kB time=00:01:10.00 bitrate=2941.6kbits/s dup=0 drop=245  
  185. real-time buffer 155% full! frame dropped!
  186. frame=  712 fps= 10 q=20.0 size=   25609kB time=00:01:10.80 bitrate=2963.1kbits/s dup=1 drop=245  
  187. real-time buffer 155% full! frame dropped!
  188. frame=  718 fps= 10 q=21.0 size=   25659kB time=00:01:10.89 bitrate=2964.9kbits/s dup=1 drop=246  
  189. frame=  724 fps= 10 q=16.0 size=   26073kB time=00:01:11.94 bitrate=2969.0kbits/s dup=1 drop=249  
  190. frame=  730 fps= 10 q=16.0 size=   26074kB time=00:01:12.41 bitrate=2949.8kbits/s dup=1 drop=251  
  191. frame=  735 fps= 10 q=0.0 size=   26298kB time=00:01:12.93 bitrate=2953.9kbits/s dup=1 drop=254  
  192. frame=  740 fps= 10 q=0.0 size=   26345kB time=00:01:13.40 bitrate=2940.2kbits/s dup=1 drop=257  
  193. real-time buffer 155% full! frame dropped!
  194. frame=  745 fps= 10 q=4.0 size=   26345kB time=00:01:13.40 bitrate=2940.2kbits/s dup=1 drop=260  
  195. frame=  750 fps= 10 q=5.0 size=   26386kB time=00:01:14.44 bitrate=2903.4kbits/s dup=1 drop=263  
  196. real-time buffer 155% full! frame dropped!
  197. frame=  755 fps= 10 q=0.0 size=   26386kB time=00:01:14.44 bitrate=2903.4kbits/s dup=1 drop=266  
  198. frame=  761 fps= 10 q=17.0 size=   26809kB time=00:01:15.44 bitrate=2911.1kbits/s dup=1 drop=268  
  199. frame=  766 fps= 10 q=20.0 size=   26937kB time=00:01:16.20 bitrate=2895.9kbits/s dup=1 drop=269  
  200. frame=  771 fps= 10 q=20.0 size=   27237kB time=00:01:16.70 bitrate=2909.1kbits/s dup=1 drop=271  
  201. frame=  776 fps= 10 q=23.0 size=   27532kB time=00:01:17.20 bitrate=2921.5kbits/s dup=1 drop=273  
  202. frame=  781 fps= 10 q=22.0 size=   27865kB time=00:01:17.70 bitrate=2937.8kbits/s dup=1 drop=274  
  203. frame=  786 fps= 10 q=22.0 size=   28233kB time=00:01:18.20 bitrate=2957.6kbits/s dup=1 drop=276  
  204. frame=  791 fps= 10 q=22.0 size=   28603kB time=00:01:18.70 bitrate=2977.3kbits/s dup=1 drop=277  
  205. frame=  797 fps= 10 q=22.0 size=   29014kB time=00:01:19.30 bitrate=2997.2kbits/s dup=1 drop=279  
  206. frame=  803 fps= 10 q=22.0 size=   29417kB time=00:01:19.90 bitrate=3016.1kbits/s dup=1 drop=280  
  207. frame=  808 fps= 10 q=22.0 size=   29724kB time=00:01:20.40 bitrate=3028.6kbits/s dup=1 drop=282  
  208. frame=  813 fps= 10 q=20.0 size=   29970kB time=00:01:20.90 bitrate=3034.8kbits/s dup=1 drop=284  
  209. frame=  818 fps= 10 q=21.0 size=   30160kB time=00:01:21.40 bitrate=3035.3kbits/s dup=1 drop=286  
  210. frame=  823 fps= 10 q=21.0 size=   30352kB time=00:01:21.90 bitrate=3035.9kbits/s dup=1 drop=287  
  211. frame=  828 fps= 10 q=20.0 size=   30540kB time=00:01:22.40 bitrate=3036.2kbits/s dup=1 drop=289  
  212. frame=  833 fps= 10 q=21.0 size=   30765kB time=00:01:22.90 bitrate=3040.1kbits/s dup=1 drop=291  
  213. frame=  839 fps= 10 q=20.0 size=   31010kB time=00:01:23.43 bitrate=3044.7kbits/s dup=1 drop=292  
  214. frame=  844 fps= 10 q=21.0 size=   31266kB time=00:01:23.90 bitrate=3052.6kbits/s dup=1 drop=294  
  215. frame=  849 fps= 10 q=18.0 size=   31497kB time=00:01:24.42 bitrate=3056.1kbits/s dup=1 drop=297  
  216. frame=  855 fps= 10 q=18.0 size=   31681kB time=00:01:24.95 bitrate=3055.1kbits/s dup=1 drop=299  
  217. frame=  860 fps= 10 q=18.0 size=   31826kB time=00:01:25.42 bitrate=3052.2kbits/s dup=1 drop=302  
  218. real-time buffer 158% full! frame dropped!
  219. [dshow @ 0217AAE0] real-time buffer 158% full! frame dropped!
  220.     Last message repeated 1 times
  221. real-time buffer 158% full! frame dropped!
  222. [dshow @ 0217AAE0] real-time buffer 158% full! frame dropped!
  223.     Last message repeated 115 times
  224. frame=  861 fps=  9 q=-1.0 Lsize=   32026kB time=00:01:25.47 bitrate=3069.5kbits/s dup=1 drop=302  
  225.  
  226. video:29272kB audio:334kB global headers:0kB muxing overhead 8.173211%
  227. [dshow @ 0217AAE0] real-time buffer 158% full! frame dropped!
  228. [libx264 @ 02563C60] frame I:4     Avg QP:13.50  size:210693
  229. [libx264 @ 02563C60] frame P:857   Avg QP:18.47  size: 33993
  230. [libx264 @ 02563C60] mb I  I16..4: 100.0%  0.0%  0.0%
  231. [libx264 @ 02563C60] mb P  I16..4: 12.5%  0.0%  0.0%  P16..4: 37.8%  0.0%  0.0%  0.0%  0.0%    skip:49.7%
  232. [libx264 @ 02563C60] coded y,uvDC,uvAC intra: 66.6% 70.3% 49.0% inter: 29.2% 22.7% 5.0%
  233. [libx264 @ 02563C60] i16 v,h,dc,p: 60% 26%  9%  6%
  234. [libx264 @ 02563C60] i8c dc,h,v,p: 32% 22% 39%  7%
  235. [libx264 @ 02563C60] kb/s:2785.13
  236. [dshow @ 0217AAE0] real-time buffer 158% full! frame dropped!
  237.     Last message repeated 8 times
  238. Received signal 2: terminating.
RAW Paste Data
We use cookies for various purposes including analytics. By continuing to use Pastebin, you agree to our use of cookies as described in the Cookies Policy. OK, I Understand
 
Top