Guest User

The.Departed.2006.MULTi.1080p.BluRay.x264.DTS-FiDELiO

a guest
May 16th, 2019
76
Never
Not a member of Pastebin yet? Sign Up, it unlocks many cool features!
  1. General
  2. Unique ID                                : 270600667615500844665758565642376157938 (0xCB93CAF9BCB83A375B8DCE8B1AE99AF2)
  3. Complete name                            : The.Departed.2006.MULTi.1080p.BluRay.x264.DTS-FiDELiO.mkv
  4. Format                                   : Matroska
  5. Format version                           : Version 4
  6. File size                                : 13.1 GiB
  7. Duration                                 : 2 h 31 min
  8. Overall bit rate                         : 12.4 Mb/s
  9. Encoded date                             : UTC 2013-08-24 09:32:51
  10. Writing application                      : mkvmerge v6.3.0 ('You can't stop me!') built on Jul 12 2013 03:27:37
  11. Writing library                          : libebml v1.3.0 + libmatroska v1.4.0 / Lavf54.63.104
  12.  
  13. Video
  14. ID                                       : 1
  15. Format                                   : AVC
  16. Format/Info                              : Advanced Video Codec
  17. Format profile                           : High@L4.1
  18. Format settings                          : CABAC / 5 Ref Frames
  19. Format settings, CABAC                   : Yes
  20. Format settings, Reference frames        : 5 frames
  21. Codec ID                                 : V_MPEG4/ISO/AVC
  22. Duration                                 : 2 h 31 min
  23. Bit rate                                 : 9 385 kb/s
  24. Width                                    : 1 920 pixels
  25. Height                                   : 800 pixels
  26. Display aspect ratio                     : 2.40:1
  27. Frame rate mode                          : Constant
  28. Frame rate                               : 23.976 (24000/1001) FPS
  29. Color space                              : YUV
  30. Chroma subsampling                       : 4:2:0
  31. Bit depth                                : 8 bits
  32. Scan type                                : Progressive
  33. Bits/(Pixel*Frame)                       : 0.255
  34. Stream size                              : 9.67 GiB (74%)
  35. Writing library                          : x264 core 135 r2345M f0c1c53
  36. Encoding settings                        : cabac=1 / ref=5 / deblock=1:0:0 / analyse=0x3:0x133 / me=umh / subme=10 / psy=1 / psy_rd=1.00:0.00 / mixed_ref=1 / me_range=24 / chroma_me=1 / trellis=2 / 8x8dct=1 / cqm=0 / deadzone=21,11 / fast_pskip=1 / chroma_qp_offset=-2 / threads=12 / lookahead_threads=2 / sliced_threads=0 / nr=0 / decimate=1 / interlaced=0 / bluray_compat=0 / constrained_intra=0 / bframes=8 / b_pyramid=2 / b_adapt=2 / b_bias=0 / direct=3 / weightb=1 / open_gop=0 / weightp=2 / keyint=250 / keyint_min=23 / scenecut=40 / intra_refresh=0 / rc_lookahead=60 / rc=2pass / mbtree=1 / bitrate=9385 / ratetol=1.0 / qcomp=0.60 / qpmin=0 / qpmax=69 / qpstep=4 / cplxblur=20.0 / qblur=0.5 / ip_ratio=1.40 / aq=1:1.00
  37. Default                                  : Yes
  38. Forced                                   : No
  39.  
  40. Audio #1
  41. ID                                       : 2
  42. Format                                   : DTS
  43. Format/Info                              : Digital Theater Systems
  44. Codec ID                                 : A_DTS
  45. Duration                                 : 2 h 31 min
  46. Bit rate mode                            : Constant
  47. Bit rate                                 : 1 509 kb/s
  48. Channel(s)                               : 6 channels
  49. Channel layout                           : C L R Ls Rs LFE
  50. Sampling rate                            : 48.0 kHz
  51. Frame rate                               : 93.750 FPS (512 SPF)
  52. Bit depth                                : 16 bits
  53. Compression mode                         : Lossy
  54. Delay relative to video                  : -84 ms
  55. Stream size                              : 1.60 GiB (12%)
  56. Title                                    : French audio
  57. Language                                 : French
  58. Default                                  : Yes
  59. Forced                                   : No
  60.  
  61. Audio #2
  62. ID                                       : 3
  63. Format                                   : DTS
  64. Format/Info                              : Digital Theater Systems
  65. Codec ID                                 : A_DTS
  66. Duration                                 : 2 h 31 min
  67. Bit rate mode                            : Constant
  68. Bit rate                                 : 1 509 kb/s
  69. Channel(s)                               : 6 channels
  70. Channel layout                           : C L R Ls Rs LFE
  71. Sampling rate                            : 48.0 kHz
  72. Frame rate                               : 93.750 FPS (512 SPF)
  73. Bit depth                                : 16 bits
  74. Compression mode                         : Lossy
  75. Delay relative to video                  : -84 ms
  76. Stream size                              : 1.60 GiB (12%)
  77. Title                                    : English audio
  78. Language                                 : English
  79. Default                                  : No
  80. Forced                                   : No
  81.  
  82. Text #1
  83. ID                                       : 4
  84. Format                                   : UTF-8
  85. Codec ID                                 : S_TEXT/UTF8
  86. Codec ID/Info                            : UTF-8 Plain Text
  87. Title                                    : Forced French subtitles
  88. Language                                 : French
  89. Default                                  : Yes
  90. Forced                                   : No
  91.  
  92. Text #2
  93. ID                                       : 5
  94. Format                                   : UTF-8
  95. Codec ID                                 : S_TEXT/UTF8
  96. Codec ID/Info                            : UTF-8 Plain Text
  97. Title                                    : French subtitles
  98. Language                                 : French
  99. Default                                  : No
  100. Forced                                   : No
  101.  
  102. Menu
  103. 00:00:00.000                             : en:00:00:00.000
  104. 00:08:21.626                             : en:00:08:21.626
  105. 00:17:36.347                             : en:00:17:36.347
  106. 00:27:03.330                             : en:00:27:03.330
  107. 00:32:20.981                             : en:00:32:20.981
  108. 00:42:08.568                             : en:00:42:08.568
  109. 00:51:27.584                             : en:00:51:27.584
  110. 00:59:47.918                             : en:00:59:47.918
  111. 01:09:55.691                             : en:01:09:55.691
  112. 01:19:32.393                             : en:01:19:32.393
  113. 01:30:23.126                             : en:01:30:23.126
  114. 01:41:43.222                             : en:01:41:43.222
  115. 01:49:01.785                             : en:01:49:01.785
  116. 01:57:32.629                             : en:01:57:32.629
  117. 02:06:07.435                             : en:02:06:07.435
  118. 02:16:25.094                             : en:02:16:25.094
  119. 02:24:50.765                             : en:02:24:50.765
  120. 02:31:25.660                             : en:02:31:25.660
RAW Paste Data