Guest User

ffmpeg

a guest
May 26th, 2021
26
Never
Not a member of Pastebin yet? Sign Up, it unlocks many cool features!
  1. [xxxxxx@xxxxxx Star Trek The Next Generation Season 6 (1080p)]$ ffmpeg -i Star\ Trek\ TNG\ S06E01\ Times\ Arrow\ Part\ 2\ \ \(1080p\ ).mkv -vcodec copy -acodec copy -ss 00:01:00.000 -t 00:00:10.000 OUTFILE.mkv
  2. ffmpeg version 4.4 Copyright (c) 2000-2021 the FFmpeg developers
  3. built with gcc 11 (GCC)
  4. configuration: --prefix=/usr --bindir=/usr/bin --datadir=/usr/share/ffmpeg --docdir=/usr/share/doc/ffmpeg --incdir=/usr/include/ffmpeg --libdir=/usr/lib64 --mandir=/usr/share/man --arch=x86_64 --optflags='-O2 -flto=auto -ffat-lto-objects -fexceptions -g -grecord-gcc-switches -pipe -Wall -Werror=format-security -Wp,-D_FORTIFY_SOURCE=2 -Wp,-D_GLIBCXX_ASSERTIONS -specs=/usr/lib/rpm/redhat/redhat-hardened-cc1 -fstack-protector-strong -specs=/usr/lib/rpm/redhat/redhat-annobin-cc1 -m64 -mtune=generic -fasynchronous-unwind-tables -fstack-clash-protection -fcf-protection' --extra-ldflags='-Wl,-z,relro -Wl,--as-needed -Wl,-z,now -specs=/usr/lib/rpm/redhat/redhat-hardened-ld ' --extra-cflags=' -I/usr/include/rav1e' --enable-libopencore-amrnb --enable-libopencore-amrwb --enable-libvo-amrwbenc --enable-version3 --enable-bzlib --disable-crystalhd --enable-fontconfig --enable-frei0r --enable-gcrypt --enable-gnutls --enable-ladspa --enable-libaom --enable-libdav1d --enable-libass --enable-libbluray --enable-libcdio --enable-libdrm --enable-libjack --enable-libfreetype --enable-libfribidi --enable-libgsm --enable-libmp3lame --enable-libmysofa --enable-nvenc --enable-openal --enable-opencl --enable-opengl --enable-libopenjpeg --enable-libopenmpt --enable-libopus --enable-libpulse --enable-librsvg --enable-librav1e --enable-libsmbclient --enable-version3 --enable-libsoxr --enable-libspeex --enable-libsrt --enable-libssh --enable-libsvtav1 --enable-libtheora --enable-libvorbis --enable-libv4l2 --enable-libvidstab --enable-libvmaf --enable-version3 --enable-vapoursynth --enable-libvpx --enable-vulkan --enable-libglslang --enable-libx264 --enable-libx265 --enable-libxvid --enable-libxml2 --enable-libzimg --enable-libzvbi --enable-lv2 --enable-avfilter --enable-avresample --enable-libmodplug --enable-postproc --enable-pthreads --disable-static --enable-shared --enable-gpl --disable-debug --disable-stripping --shlibdir=/usr/lib64 --enable-lto --enable-libmfx --enable-runtime-cpudetect
  5. libavutil 56. 70.100 / 56. 70.100
  6. libavcodec 58.134.100 / 58.134.100
  7. libavformat 58. 76.100 / 58. 76.100
  8. libavdevice 58. 13.100 / 58. 13.100
  9. libavfilter 7.110.100 / 7.110.100
  10. libavresample 4. 0. 0 / 4. 0. 0
  11. libswscale 5. 9.100 / 5. 9.100
  12. libswresample 3. 9.100 / 3. 9.100
  13. libpostproc 55. 9.100 / 55. 9.100
  14. [aac @ 0x558f39a6dc80] Assuming an incorrectly encoded 7.1 channel layout instead of a spec-compliant 7.1(wide) layout, use -strict 1 to decode according to the specification instead.
  15. Input #0, matroska,webm, from 'Star Trek TNG S06E01 Times Arrow Part 2 (1080p x265 10bit Joy).mkv':
  16. Metadata:
  17. encoder : libebml v1.3.6 + libmatroska v1.4.9
  18. creation_time : 2018-11-07T02:37:04.000000Z
  19. Writing frontend: StaxRip v1.8.2.0
  20. Duration: 00:45:40.77, start: 0.000000, bitrate: 1663 kb/s
  21. Chapters:
  22. Chapter #0:0: start 0.000000, end 302.427000
  23. Metadata:
  24. title : Chapter 1
  25. Chapter #0:1: start 302.427000, end 739.781000
  26. Metadata:
  27. title : Chapter 2
  28. Chapter #0:2: start 739.781000, end 1132.131000
  29. Metadata:
  30. title : Chapter 3
  31. Chapter #0:3: start 1132.131000, end 1542.124000
  32. Metadata:
  33. title : Chapter 4
  34. Chapter #0:4: start 1542.124000, end 2083.123000
  35. Metadata:
  36. title : Chapter 5
  37. Chapter #0:5: start 2083.123000, end 2687.852000
  38. Metadata:
  39. title : Chapter 6
  40. Chapter #0:6: start 2687.852000, end 2740.767000
  41. Metadata:
  42. title : Chapter 7
  43. Stream #0:0: Video: hevc (Main 10), yuv420p10le(tv), 1424x1072, SAR 1:1 DAR 89:67, 23.98 fps, 23.98 tbr, 1k tbn, 23.98 tbc (default)
  44. Metadata:
  45. BPS-eng : 1200431
  46. DURATION-eng : 00:45:39.696000000
  47. NUMBER_OF_FRAMES-eng: 65687
  48. NUMBER_OF_BYTES-eng: 411102225
  49. _STATISTICS_WRITING_APP-eng: mkvmerge v24.0.0 ('Beyond The Pale') 64-bit
  50. _STATISTICS_WRITING_DATE_UTC-eng: 2018-11-07 02:37:04
  51. _STATISTICS_TAGS-eng: BPS DURATION NUMBER_OF_FRAMES NUMBER_OF_BYTES
  52. Stream #0:1(eng): Audio: aac (HE-AAC), 48000 Hz, 7.1, fltp
  53. Metadata:
  54. BPS-eng : 281670
  55. DURATION-eng : 00:45:40.736000000
  56. NUMBER_OF_FRAMES-eng: 64236
  57. NUMBER_OF_BYTES-eng: 96498152
  58. _STATISTICS_WRITING_APP-eng: mkvmerge v24.0.0 ('Beyond The Pale') 64-bit
  59. _STATISTICS_WRITING_DATE_UTC-eng: 2018-11-07 02:37:04
  60. _STATISTICS_TAGS-eng: BPS DURATION NUMBER_OF_FRAMES NUMBER_OF_BYTES
  61. Stream #0:2(eng): Subtitle: hdmv_pgs_subtitle, 1920x1080
  62. Metadata:
  63. BPS-eng : 40842
  64. DURATION-eng : 00:45:36.734000000
  65. NUMBER_OF_FRAMES-eng: 1354
  66. NUMBER_OF_BYTES-eng: 13971966
  67. _STATISTICS_WRITING_APP-eng: mkvmerge v24.0.0 ('Beyond The Pale') 64-bit
  68. _STATISTICS_WRITING_DATE_UTC-eng: 2018-11-07 02:37:04
  69. _STATISTICS_TAGS-eng: BPS DURATION NUMBER_OF_FRAMES NUMBER_OF_BYTES
  70. Stream #0:3(dan): Subtitle: hdmv_pgs_subtitle, 1920x1080
  71. Metadata:
  72. BPS-eng : 36557
  73. DURATION-eng : 00:45:36.734000000
  74. NUMBER_OF_FRAMES-eng: 1226
  75. NUMBER_OF_BYTES-eng: 12505909
  76. _STATISTICS_WRITING_APP-eng: mkvmerge v24.0.0 ('Beyond The Pale') 64-bit
  77. _STATISTICS_WRITING_DATE_UTC-eng: 2018-11-07 02:37:04
  78. _STATISTICS_TAGS-eng: BPS DURATION NUMBER_OF_FRAMES NUMBER_OF_BYTES
  79. Stream #0:4(ger): Subtitle: hdmv_pgs_subtitle, 1920x1080
  80. Metadata:
  81. BPS-eng : 40488
  82. DURATION-eng : 00:45:36.734000000
  83. NUMBER_OF_FRAMES-eng: 1258
  84. NUMBER_OF_BYTES-eng: 13850635
  85. _STATISTICS_WRITING_APP-eng: mkvmerge v24.0.0 ('Beyond The Pale') 64-bit
  86. _STATISTICS_WRITING_DATE_UTC-eng: 2018-11-07 02:37:04
  87. _STATISTICS_TAGS-eng: BPS DURATION NUMBER_OF_FRAMES NUMBER_OF_BYTES
  88. Stream #0:5(spa): Subtitle: hdmv_pgs_subtitle, 1920x1080
  89. Metadata:
  90. BPS-eng : 36836
  91. DURATION-eng : 00:45:36.734000000
  92. NUMBER_OF_FRAMES-eng: 1276
  93. NUMBER_OF_BYTES-eng: 12601576
  94. _STATISTICS_WRITING_APP-eng: mkvmerge v24.0.0 ('Beyond The Pale') 64-bit
  95. _STATISTICS_WRITING_DATE_UTC-eng: 2018-11-07 02:37:04
  96. _STATISTICS_TAGS-eng: BPS DURATION NUMBER_OF_FRAMES NUMBER_OF_BYTES
  97. Stream #0:6(fre): Subtitle: hdmv_pgs_subtitle, 1920x1080
  98. Metadata:
  99. BPS-eng : 39047
  100. DURATION-eng : 00:45:36.734000000
  101. NUMBER_OF_FRAMES-eng: 1250
  102. NUMBER_OF_BYTES-eng: 13357985
  103. _STATISTICS_WRITING_APP-eng: mkvmerge v24.0.0 ('Beyond The Pale') 64-bit
  104. _STATISTICS_WRITING_DATE_UTC-eng: 2018-11-07 02:37:04
  105. _STATISTICS_TAGS-eng: BPS DURATION NUMBER_OF_FRAMES NUMBER_OF_BYTES
  106. Stream #0:7(ita): Subtitle: hdmv_pgs_subtitle, 1920x1080
  107. Metadata:
  108. BPS-eng : 39462
  109. DURATION-eng : 00:45:36.734000000
  110. NUMBER_OF_FRAMES-eng: 1264
  111. NUMBER_OF_BYTES-eng: 13499652
  112. _STATISTICS_WRITING_APP-eng: mkvmerge v24.0.0 ('Beyond The Pale') 64-bit
  113. _STATISTICS_WRITING_DATE_UTC-eng: 2018-11-07 02:37:04
  114. _STATISTICS_TAGS-eng: BPS DURATION NUMBER_OF_FRAMES NUMBER_OF_BYTES
  115. Stream #0:8(jpn): Subtitle: hdmv_pgs_subtitle, 1920x1080
  116. Metadata:
  117. BPS-eng : 26408
  118. DURATION-eng : 00:45:36.734000000
  119. NUMBER_OF_FRAMES-eng: 1022
  120. NUMBER_OF_BYTES-eng: 9034264
  121. _STATISTICS_WRITING_APP-eng: mkvmerge v24.0.0 ('Beyond The Pale') 64-bit
  122. _STATISTICS_WRITING_DATE_UTC-eng: 2018-11-07 02:37:04
  123. _STATISTICS_TAGS-eng: BPS DURATION NUMBER_OF_FRAMES NUMBER_OF_BYTES
  124. Stream #0:9(dut): Subtitle: hdmv_pgs_subtitle, 1920x1080
  125. Metadata:
  126. BPS-eng : 36306
  127. DURATION-eng : 00:45:36.734000000
  128. NUMBER_OF_FRAMES-eng: 1252
  129. NUMBER_OF_BYTES-eng: 12420213
  130. _STATISTICS_WRITING_APP-eng: mkvmerge v24.0.0 ('Beyond The Pale') 64-bit
  131. _STATISTICS_WRITING_DATE_UTC-eng: 2018-11-07 02:37:04
  132. _STATISTICS_TAGS-eng: BPS DURATION NUMBER_OF_FRAMES NUMBER_OF_BYTES
  133. Stream #0:10(nob): Subtitle: hdmv_pgs_subtitle, 1920x1080
  134. Metadata:
  135. BPS-eng : 35540
  136. DURATION-eng : 00:45:36.734000000
  137. NUMBER_OF_FRAMES-eng: 1256
  138. NUMBER_OF_BYTES-eng: 12158012
  139. _STATISTICS_WRITING_APP-eng: mkvmerge v24.0.0 ('Beyond The Pale') 64-bit
  140. _STATISTICS_WRITING_DATE_UTC-eng: 2018-11-07 02:37:04
  141. _STATISTICS_TAGS-eng: BPS DURATION NUMBER_OF_FRAMES NUMBER_OF_BYTES
  142. Stream #0:11(fin): Subtitle: hdmv_pgs_subtitle, 1920x1080
  143. Metadata:
  144. BPS-eng : 39584
  145. DURATION-eng : 00:45:36.734000000
  146. NUMBER_OF_FRAMES-eng: 1194
  147. NUMBER_OF_BYTES-eng: 13541413
  148. _STATISTICS_WRITING_APP-eng: mkvmerge v24.0.0 ('Beyond The Pale') 64-bit
  149. _STATISTICS_WRITING_DATE_UTC-eng: 2018-11-07 02:37:04
  150. _STATISTICS_TAGS-eng: BPS DURATION NUMBER_OF_FRAMES NUMBER_OF_BYTES
  151. Stream #0:12(swe): Subtitle: hdmv_pgs_subtitle, 1920x1080
  152. Metadata:
  153. BPS-eng : 37267
  154. DURATION-eng : 00:45:36.734000000
  155. NUMBER_OF_FRAMES-eng: 1260
  156. NUMBER_OF_BYTES-eng: 12748868
  157. _STATISTICS_WRITING_APP-eng: mkvmerge v24.0.0 ('Beyond The Pale') 64-bit
  158. _STATISTICS_WRITING_DATE_UTC-eng: 2018-11-07 02:37:04
  159. _STATISTICS_TAGS-eng: BPS DURATION NUMBER_OF_FRAMES NUMBER_OF_BYTES
  160. File 'OUTFILE.mkv' already exists. Overwrite? [y/N] y
  161. Output #0, matroska, to 'OUTFILE.mkv':
  162. Metadata:
  163. Writing frontend: StaxRip v1.8.2.0
  164. encoder : Lavf58.76.100
  165. Chapters:
  166. Chapter #0:0: start 0.000000, end 10.000000
  167. Metadata:
  168. title : Chapter 1
  169. Stream #0:0: Video: hevc (Main 10), yuv420p10le(tv), 1424x1072 [SAR 1:1 DAR 89:67], q=2-31, 23.98 fps, 23.98 tbr, 1k tbn, 1k tbc (default)
  170. Metadata:
  171. BPS-eng : 1200431
  172. DURATION-eng : 00:45:39.696000000
  173. NUMBER_OF_FRAMES-eng: 65687
  174. NUMBER_OF_BYTES-eng: 411102225
  175. _STATISTICS_WRITING_APP-eng: mkvmerge v24.0.0 ('Beyond The Pale') 64-bit
  176. _STATISTICS_WRITING_DATE_UTC-eng: 2018-11-07 02:37:04
  177. _STATISTICS_TAGS-eng: BPS DURATION NUMBER_OF_FRAMES NUMBER_OF_BYTES
  178. Stream #0:1(eng): Audio: aac (HE-AAC) ([255][0][0][0] / 0x00FF), 48000 Hz, 7.1, fltp
  179. Metadata:
  180. BPS-eng : 281670
  181. DURATION-eng : 00:45:40.736000000
  182. NUMBER_OF_FRAMES-eng: 64236
  183. NUMBER_OF_BYTES-eng: 96498152
  184. _STATISTICS_WRITING_APP-eng: mkvmerge v24.0.0 ('Beyond The Pale') 64-bit
  185. _STATISTICS_WRITING_DATE_UTC-eng: 2018-11-07 02:37:04
  186. _STATISTICS_TAGS-eng: BPS DURATION NUMBER_OF_FRAMES NUMBER_OF_BYTES
  187. Stream mapping:
  188. Stream #0:0 -> #0:0 (copy)
  189. Stream #0:1 -> #0:1 (copy)
  190. Press [q] to stop, [?] for help
  191. frame= 232 fps=0.0 q=-1.0 Lsize= 1890kB time=00:00:09.98 bitrate=1549.8kbits/s speed= 425x
  192. video:1502kB audio:381kB subtitle:0kB other streams:0kB global headers:2kB muxing overhead: 0.381884%
  193.  
RAW Paste Data