Guest User

Untitled

a guest
Apr 11th, 2018
246
Never
Not a member of Pastebin yet? Sign Up, it unlocks many cool features!
  1. General
  2. Unique ID : 253409307115517495362636190443535731587 (0xBEA4DB7670F4138FF9BAFC71BC3A0B83)
  3. Complete name : E:\Gundam\Gundam 00\Complete Episode MKV's\[OZC]Mobile Suit Gundam 00 The Movie -A Wakening of the Trailblazer- [2160p HDR].mkv
  4. Format : Matroska
  5. Format version : Version 4 / Version 2
  6. File size : 5.14 GiB
  7. Duration : 2 h 0 min
  8. Overall bit rate : 6 099 kb/s
  9. Encoded date : UTC 2018-04-02 03:59:14
  10. Writing application : mkvmerge v21.0.0 ('Tardigrades Will Inherit The Earth') 64-bit
  11. Writing library : libebml v1.3.5 + libmatroska v1.4.8
  12. Attachments : Baskerville Handcut BOLD_2.ttf / NotoSans-Bold.ttf / NotoSans-BoldItalic.ttf / Trivia_2.otf / TwCenMTStd.ttf
  13.  
  14. Video
  15. ID : 1
  16. Format : HEVC
  17. Format/Info : High Efficiency Video Coding
  18. Format profile : Main 10@L5.1@High
  19. Codec ID : V_MPEGH/ISO/HEVC
  20. Duration : 2 h 0 min
  21. Bit rate : 5 112 kb/s
  22. Width : 3 840 pixels
  23. Height : 2 160 pixels
  24. Display aspect ratio : 16:9
  25. Frame rate mode : Constant
  26. Frame rate : 23.976 (24000/1001) FPS
  27. Standard : NTSC
  28. Color space : YUV
  29. Chroma subsampling : 4:2:0
  30. Bit depth : 10 bits
  31. Bits/(Pixel*Frame) : 0.026
  32. Stream size : 4.31 GiB (84%)
  33. Title : Mobile Suit Gundam 00: The Movie -A Wakening of the Trailblazer-
  34. Writing library : x265 2.7+14-d7c26df32fae:[Windows][MSVC 1900][64 bit] 10bit
  35. Encoding settings : cpuid=1050111 / frame-threads=3 / numa-pools=8 / wpp / no-pmode / no-pme / no-psnr / no-ssim / log-level=2 / input-csp=1 / input-res=3840x2160 / interlace=0 / total-frames=173649 / level-idc=51 / high-tier=1 / uhd-bd=0 / ref=5 / no-allow-non-conformance / repeat-headers / annexb / no-aud / no-hrd / info / hash=0 / no-temporal-layers / open-gop / min-keyint=22 / keyint=250 / gop-lookahead=0 / bframes=16 / b-adapt=2 / b-pyramid / bframe-bias=0 / rc-lookahead=60 / lookahead-slices=8 / scenecut=40 / radl=0 / no-intra-refresh / ctu=64 / min-cu-size=8 / rect / no-amp / max-tu-size=32 / tu-inter-depth=4 / tu-intra-depth=4 / limit-tu=4 / rdoq-level=2 / dynamic-rd=0.00 / ssim-rd / signhide / tskip / nr-intra=0 / nr-inter=0 / no-constrained-intra / strong-intra-smoothing / max-merge=2 / limit-refs=3 / limit-modes / me=2 / subme=7 / merange=57 / temporal-mvp / weightp / no-weightb / no-analyze-src-pics / deblock=-1:-1 / sao / no-sao-non-deblock / rd=3 / no-early-skip / rskip / no-fast-intra / tskip-fast / no-cu-lossless / no-b-intra / no-splitrd-skip / rdpenalty=0 / psy-rd=0.00 / psy-rdoq=2.00 / no-rd-refine / no-lossless / cbqpoffs=-2 / crqpoffs=-2 / rc=crf / crf=15.0 / qcomp=0.60 / qpstep=4 / stats-write=0 / stats-read=0 / vbv-maxrate=160000 / vbv-bufsize=160000 / vbv-init=0.9 / crf-max=23.0 / crf-min=0.0 / ipratio=1.40 / pbratio=1.30 / aq-mode=3 / aq-strength=0.60 / cutree / zone-count=0 / no-strict-cbr / qg-size=32 / no-rc-grain / qpmax=69 / qpmin=10 / no-const-vbv / sar=0 / overscan=0 / videoformat=2 / range=0 / colorprim=9 / transfer=16 / colormatrix=9 / chromaloc=0 / display-window=0 / master-display=G(8500,39850)B(6550,2300)R(35400,14600)WP(15635,16450)L(10000000,50) / max-cll=1000,262 / min-luma=0 / max-luma=1023 / log2-max-poc-lsb=8 / vui-timing-info / vui-hrd-info / slices=1 / no-opt-qp-pps / no-opt-ref-list-length-pps / no-multi-pass-opt-rps / scenecut-bias=0.05 / no-opt-cu-delta-qp / aq-motion / hdr / hdr-opt / no-dhdr10-opt / no-idr-recovery-sei / analysis-reuse-level=5 / scale-factor=0 / refine-intra=0 / refine-inter=0 / refine-mv=0 / no-limit-sao / ctu-info=0 / no-lowpass-dct / refine-mv-type=0 / copy-pic=1 / max-ausize-factor=1.0 / no-dynamic-refine
  36. Language : Japanese
  37. Default : Yes
  38. Forced : No
  39. Color range : Limited
  40. Color primaries : BT.2020
  41. Transfer characteristics : PQ
  42. Matrix coefficients : BT.2020 non-constant
  43. Mastering display color primaries : BT.2020
  44. Mastering display luminance : min: 0.0050 cd/m2, max: 1000 cd/m2
  45. Maximum Content Light Level : 1000 cd/m2
  46. Maximum Frame-Average Light Level : 262 cd/m2
  47.  
  48. Audio #1
  49. ID : 2
  50. Format : AAC
  51. Format/Info : Advanced Audio Codec
  52. Format profile : LC
  53. Codec ID : A_AAC-2
  54. Duration : 2 h 0 min
  55. Bit rate : 495 kb/s
  56. Channel(s) : 6 channels
  57. Channel positions : Front: L C R, Side: L R, LFE
  58. Sampling rate : 48.0 kHz
  59. Frame rate : 46.875 FPS (1024 SPF)
  60. Compression mode : Lossy
  61. Stream size : 426 MiB (8%)
  62. Title : English 5.1ch Surround AAC
  63. Language : English
  64. Default : Yes
  65. Forced : No
  66.  
  67. Audio #2
  68. ID : 3
  69. Format : AAC
  70. Format/Info : Advanced Audio Codec
  71. Format profile : LC
  72. Codec ID : A_AAC-2
  73. Duration : 2 h 0 min
  74. Bit rate : 489 kb/s
  75. Channel(s) : 6 channels
  76. Channel positions : Front: L C R, Side: L R, LFE
  77. Sampling rate : 48.0 kHz
  78. Frame rate : 46.875 FPS (1024 SPF)
  79. Compression mode : Lossy
  80. Stream size : 422 MiB (8%)
  81. Title : Japanese 5.1ch Surround AAC
  82. Language : Japanese
  83. Default : No
  84. Forced : No
  85.  
  86. Text #1
  87. ID : 4
  88. Format : ASS
  89. Codec ID : S_TEXT/ASS
  90. Codec ID/Info : Advanced Sub Station Alpha
  91. Duration : 1 h 57 min
  92. Bit rate : 16 b/s
  93. Count of elements : 126
  94. Compression mode : Lossless
  95. Stream size : 14.2 KiB (0%)
  96. Title : English Signs & Songs - HDR
  97. Language : English
  98. Default : Yes
  99. Forced : No
  100.  
  101. Text #2
  102. ID : 5
  103. Format : ASS
  104. Codec ID : S_TEXT/ASS
  105. Codec ID/Info : Advanced Sub Station Alpha
  106. Duration : 1 h 59 min
  107. Bit rate : 116 b/s
  108. Count of elements : 1502
  109. Compression mode : Lossless
  110. Stream size : 102 KiB (0%)
  111. Title : English Subtitles - HDR
  112. Language : Japanese
  113. Default : No
  114. Forced : No
  115.  
  116. Text #3
  117. ID : 6
  118. Format : ASS
  119. Codec ID : S_TEXT/ASS
  120. Codec ID/Info : Advanced Sub Station Alpha
  121. Duration : 1 h 57 min
  122. Bit rate : 16 b/s
  123. Count of elements : 126
  124. Compression mode : Lossless
  125. Stream size : 14.3 KiB (0%)
  126. Title : English Signs & Songs - SDR
  127. Language : English
  128. Default : No
  129. Forced : No
  130.  
  131. Text #4
  132. ID : 7
  133. Format : ASS
  134. Codec ID : S_TEXT/ASS
  135. Codec ID/Info : Advanced Sub Station Alpha
  136. Duration : 1 h 59 min
  137. Bit rate : 116 b/s
  138. Count of elements : 1502
  139. Compression mode : Lossless
  140. Stream size : 102 KiB (0%)
  141. Title : English Subtitles - SDR
  142. Language : Japanese
  143. Default : No
  144. Forced : No
  145.  
  146. Menu
  147. 00:00:00.000 : ja:Chapter 01
  148. 00:02:24.477 : ja:Chapter 02
  149. 00:04:15.964 : ja:Chapter 03
  150. 00:16:49.800 : ja:Chapter 04
  151. 00:31:57.957 : ja:Chapter 05
  152. 00:51:15.363 : ja:Chapter 06
  153. 01:01:36.984 : ja:Chapter 07
  154. 01:21:17.622 : ja:Chapter 08
  155. 01:38:33.449 : ja:Chapter 09
  156. 01:51:21.508 : ja:Chapter 10
  157. 01:52:43.423 : ja:Chapter 11
  158. 01:57:07.687 : ja:Chapter 12
  159. 02:00:29.597 : ja:Chapter 13
RAW Paste Data