SHARE
TWEET

Untitled

a guest May 21st, 2020 6 Never
Not a member of Pastebin yet? Sign Up, it unlocks many cool features!
  1. General
  2. Unique ID                      : 259966258132590140787930576129227238477 (0xC393AE1B7A726CD2301C6AA1A8F82C4D)
  3. Complete name                  : C:\VĂ­deo\DVD_SHRINK\FILE 1 with 2 minutes.mkv
  4. Format                         : Matroska
  5. Format version                 : Version 4
  6. File size                      : 1.66 GiB
  7. Duration                       : 48 min 39 s
  8. Overall bit rate mode          : Variable
  9. Overall bit rate               : 4 884 kb/s
  10. Encoded date                   : UTC 2020-05-21 16:47:35
  11. Writing application            : mkvmerge v46.0.0 ('No Deeper Escape') 64-bit
  12. Writing library                : libebml v1.3.10 + libmatroska v1.5.2
  13.  
  14. Video
  15. ID                             : 1
  16. ID in the original source medi : 224 (0xE0)
  17. Format                         : MPEG Video
  18. Format version                 : Version 2
  19. Format profile                 : Main@Main
  20. Format settings                : BVOP
  21. Format settings, BVOP          : Yes
  22. Format settings, Matrix        : Default
  23. Format settings, GOP           : M=3, N=15
  24. Format settings, picture struc : Frame
  25. Codec ID                       : V_MPEG2
  26. Codec ID/Info                  : MPEG 1 or 2 Video
  27. Duration                       : 48 min 39 s
  28. Bit rate mode                  : Variable
  29. Bit rate                       : 4 506 kb/s
  30. Width                          : 720 pixels
  31. Height                         : 480 pixels
  32. Display aspect ratio           : 4:3
  33. Frame rate mode                : Constant
  34. Frame rate                     : 29.970 (30000/1001) FPS
  35. Standard                       : NTSC
  36. Color space                    : YUV
  37. Chroma subsampling             : 4:2:0
  38. Bit depth                      : 8 bits
  39. Scan type                      : Interlaced
  40. Scan order                     : Top Field First
  41. Compression mode               : Lossy
  42. Bits/(Pixel*Frame)             : 0.435
  43. Time code of first frame       : 00:00:00:00
  44. Time code source               : Group of pictures header
  45. GOP, Open/Closed               : Closed
  46. Stream size                    : 1.53 GiB (92%)
  47. Language                       : Portuguese
  48. Default                        : Yes
  49. Forced                         : No
  50. Color primaries                : BT.601 NTSC
  51. Transfer characteristics       : BT.601
  52. Matrix coefficients            : BT.601
  53. Original source medium         : DVD-Video
  54.  
  55. Audio
  56. ID                             : 2
  57. ID in the original source medi : 189 (0xBD)128 (0x80)
  58. Format                         : AC-3
  59. Format/Info                    : Audio Coding 3
  60. Commercial name                : Dolby Digital
  61. Codec ID                       : A_AC3
  62. Duration                       : 48 min 38 s
  63. Bit rate mode                  : Constant
  64. Bit rate                       : 384 kb/s
  65. Channel(s)                     : 2 channels
  66. Channel layout                 : L R
  67. Sampling rate                  : 48.0 kHz
  68. Frame rate                     : 31.250 FPS (1536 SPF)
  69. Compression mode               : Lossy
  70. Stream size                    : 134 MiB (8%)
  71. Language                       : Portuguese
  72. Service kind                   : Complete Main
  73. Default                        : Yes
  74. Forced                         : No
  75. Original source medium         : DVD-Video
  76.  
  77. Menu
  78. 00:00:00.000                   : en:Chapter 01
  79. 00:04:59.799                   : en:Chapter 02
  80. 00:10:00.099                   : en:Chapter 03
  81. 00:15:00.399                   : en:Chapter 04
  82. 00:20:00.699                   : en:Chapter 05
  83. 00:25:00.999                   : en:Chapter 06
  84. 00:30:01.299                   : en:Chapter 07
  85. 00:35:01.599                   : en:Chapter 08
  86. 00:40:01.899                   : en:Chapter 09
  87. 00:45:02.199                   : en:Chapter 10
RAW Paste Data
We use cookies for various purposes including analytics. By continuing to use Pastebin, you agree to our use of cookies as described in the Cookies Policy. OK, I Understand
Top