Ledger Nano X - The secure hardware wallet
SHARE
TWEET

MacGyver 1080p

bluecity Mar 9th, 2020 82 Never
Not a member of Pastebin yet? Sign Up, it unlocks many cool features!
  1. Source: WEB-DL
  2.  
  3. Format                                   : Matroska
  4. Format version                           : Version 2
  5. File size                                : 990 MiB
  6. Duration                                 : 43 min 11 s
  7. Overall bit rate                         : 3 205 kb/s
  8. Movie name                               : MacGyver.2016.S01E01.WEBRip.1080p.DD5.1.H265-d3g
  9. Encoded date                             : UTC 2018-05-06 04:18:04
  10. Writing application                      : DVDFab 10.0.9.0
  11. Writing library                          : libebml v1.3.4 + libmatroska v1.4.5
  12.  
  13. Video
  14. ID                                       : 1
  15. Format                                   : HEVC
  16. Format/Info                              : High Efficiency Video Coding
  17. Format profile                           : Main@L4@Main
  18. Codec ID                                 : V_MPEGH/ISO/HEVC
  19. Duration                                 : 43 min 10 s
  20. Bit rate                                 : 2 806 kb/s
  21. Width                                    : 1 920 pixels
  22. Height                                   : 1 080 pixels
  23. Display aspect ratio                     : 16:9
  24. Frame rate mode                          : Constant
  25. Frame rate                               : 23.976 (24000/1001) FPS
  26. Color space                              : YUV
  27. Chroma subsampling                       : 4:2:0
  28. Bit depth                                : 8 bits
  29. Bits/(Pixel*Frame)                       : 0.056
  30. Stream size                              : 867 MiB (88%)
  31. Default                                  : Yes
  32. Forced                                   : No
  33. Color range                              : Limited
  34. Color primaries                          : BT.709
  35. Transfer characteristics                 : BT.709
  36. Matrix coefficients                      : BT.709
  37.  
  38. Audio
  39. ID                                       : 2
  40. Format                                   : AC-3
  41. Format/Info                              : Audio Coding 3
  42. Codec ID                                 : A_AC3
  43. Duration                                 : 43 min 11 s
  44. Bit rate mode                            : Constant
  45. Bit rate                                 : 384 kb/s
  46. Channel(s)                               : 6 channels
  47. Channel positions                        : Front: L C R, Side: L R, LFE
  48. Sampling rate                            : 48.0 kHz
  49. Frame rate                               : 31.250 FPS (1536 SPF)
  50. Bit depth                                : 16 bits
  51. Compression mode                         : Lossy
  52. Stream size                              : 119 MiB (12%)
  53. Language                                 : English
  54. Service kind                             : Complete Main
  55. Default                                  : Yes
  56. Forced                                   : No
  57.  
  58. Text
  59. ID                                       : 3
  60. Format                                   : VobSub
  61. Codec ID                                 : S_VOBSUB
  62. Codec ID/Info                            : Picture based subtitle format used on DVDs
  63. Duration                                 : 42 min 27 s
  64. Bit rate                                 : 13.8 kb/s
  65. Count of elements                        : 855
  66. Stream size                              : 4.19 MiB (0%)
  67. Language                                 : English
  68. Default                                  : No
  69. Forced                                   : No
RAW Paste Data
We use cookies for various purposes including analytics. By continuing to use Pastebin, you agree to our use of cookies as described in the Cookies Policy. OK, I Understand
Top