SHARE
TWEET

Arrival.2016.BluRay.1080p.DTS-HD.MA.7.1.AVC.REMUX-FraMeSToR

a guest Jun 2nd, 2019 85 Never
Not a member of Pastebin yet? Sign Up, it unlocks many cool features!
  1. General
  2. Complete name                            : Arrival.2016.BluRay.1080p.DTS-HD.MA.7.1.AVC.REMUX-FraMeSToR.mkv
  3. Format                                   : Matroska
  4. Format version                           : Version 4
  5. File size                                : 25.7 GiB
  6. Duration                                 : 1 h 56 min
  7. Overall bit rate mode                    : Variable
  8. Overall bit rate                         : 31.7 Mb/s
  9. Encoded date                             : UTC 2017-02-04 02:10:30
  10. Writing application                      : mkvmerge v9.7.1 ('Pandemonium') 64bit
  11. Writing library                          : libebml v1.3.4 + libmatroska v1.4.5
  12.  
  13. Video
  14. ID                                       : 1
  15. Format                                   : AVC
  16. Format/Info                              : Advanced Video Codec
  17. Format profile                           : High@L4.1
  18. Format settings                          : CABAC / 2 Ref Frames
  19. Format settings, CABAC                   : Yes
  20. Format settings, Reference frames        : 2 frames
  21. Format settings, GOP                     : M=1, N=10
  22. Codec ID                                 : V_MPEG4/ISO/AVC
  23. Duration                                 : 1 h 56 min
  24. Bit rate mode                            : Variable
  25. Bit rate                                 : 27.3 Mb/s
  26. Width                                    : 1 920 pixels
  27. Height                                   : 1 080 pixels
  28. Display aspect ratio                     : 16:9
  29. Frame rate mode                          : Constant
  30. Frame rate                               : 23.976 (24000/1001) FPS
  31. Color space                              : YUV
  32. Chroma subsampling                       : 4:2:0
  33. Bit depth                                : 8 bits
  34. Scan type                                : Progressive
  35. Bits/(Pixel*Frame)                       : 0.550
  36. Stream size                              : 22.2 GiB (86%)
  37. Default                                  : Yes
  38. Forced                                   : No
  39.  
  40. Audio
  41. ID                                       : 2
  42. Format                                   : DTS XLL
  43. Format/Info                              : Digital Theater Systems
  44. Commercial name                          : DTS-HD Master Audio
  45. Codec ID                                 : A_DTS
  46. Duration                                 : 1 h 56 min
  47. Bit rate mode                            : Variable
  48. Bit rate                                 : 4 207 kb/s
  49. Channel(s)                               : 8 channels
  50. Channel layout                           : C L R LFE Lb Rb Lss Rss
  51. Sampling rate                            : 48.0 kHz
  52. Frame rate                               : 93.750 FPS (512 SPF)
  53. Bit depth                                : 24 bits
  54. Compression mode                         : Lossless
  55. Stream size                              : 3.42 GiB (13%)
  56. Title                                    : DTS-HD MA 7.1
  57. Language                                 : English
  58. Default                                  : Yes
  59. Forced                                   : No
  60.  
  61. Text #1
  62. ID                                       : 3
  63. Format                                   : PGS
  64. Codec ID                                 : S_HDMV/PGS
  65. Codec ID/Info                            : Picture based subtitle format used on BDs/HD-DVDs
  66. Duration                                 : 1 h 48 min
  67. Bit rate                                 : 32.8 kb/s
  68. Count of elements                        : 2444
  69. Stream size                              : 25.6 MiB (0%)
  70. Title                                    : English
  71. Language                                 : English
  72. Default                                  : Yes
  73. Forced                                   : No
  74.  
  75. Text #2
  76. ID                                       : 4
  77. Format                                   : PGS
  78. Codec ID                                 : S_HDMV/PGS
  79. Codec ID/Info                            : Picture based subtitle format used on BDs/HD-DVDs
  80. Duration                                 : 1 h 48 min
  81. Bit rate                                 : 36.1 kb/s
  82. Count of elements                        : 2878
  83. Stream size                              : 28.2 MiB (0%)
  84. Title                                    : English (SDH)
  85. Language                                 : English
  86. Default                                  : No
  87. Forced                                   : No
  88.  
  89. Text #3
  90. ID                                       : 5
  91. Format                                   : PGS
  92. Codec ID                                 : S_HDMV/PGS
  93. Codec ID/Info                            : Picture based subtitle format used on BDs/HD-DVDs
  94. Duration                                 : 1 h 49 min
  95. Bit rate                                 : 30.7 kb/s
  96. Count of elements                        : 2528
  97. Stream size                              : 24.0 MiB (0%)
  98. Title                                    : French
  99. Language                                 : French
  100. Default                                  : No
  101. Forced                                   : No
  102.  
  103. Text #4
  104. ID                                       : 6
  105. Format                                   : PGS
  106. Codec ID                                 : S_HDMV/PGS
  107. Codec ID/Info                            : Picture based subtitle format used on BDs/HD-DVDs
  108. Duration                                 : 1 h 49 min
  109. Bit rate                                 : 29.8 kb/s
  110. Count of elements                        : 2278
  111. Stream size                              : 23.3 MiB (0%)
  112. Title                                    : Spanish (Latin American)
  113. Language                                 : Spanish
  114. Default                                  : No
  115. Forced                                   : No
  116.  
  117. Menu
  118. 00:00:00.000                             : en:00:00:00.000
  119. 00:09:49.923                             : en:00:09:49.923
  120. 00:17:33.552                             : en:00:17:33.552
  121. 00:23:28.282                             : en:00:23:28.282
  122. 00:33:54.157                             : en:00:33:54.157
  123. 00:41:01.709                             : en:00:41:01.709
  124. 00:52:26.101                             : en:00:52:26.101
  125. 00:57:34.576                             : en:00:57:34.576
  126. 01:03:06.449                             : en:01:03:06.449
  127. 01:09:29.207                             : en:01:09:29.207
  128. 01:16:09.398                             : en:01:16:09.398
  129. 01:25:21.825                             : en:01:25:21.825
  130. 01:35:37.065                             : en:01:35:37.065
  131. 01:45:26.695                             : en:01:45:26.695
RAW Paste Data
We use cookies for various purposes including analytics. By continuing to use Pastebin, you agree to our use of cookies as described in the Cookies Policy. OK, I Understand
 
Top