Guest User

Untitled

a guest
Jul 3rd, 2017
481
Never
Not a member of Pastebin yet? Sign Up, it unlocks many cool features!
  1. General
  2. Unique ID : 217854146210169672395528258275518476440 (0xA3E52EAFC4A1008E95D48110123C7098)
  3. Complete name : C:\Users\batti\Desktop\Pattaya.2016.BDRip.1080p.ExKinoRay.mkv
  4. Format : Matroska
  5. Format version : Version 4 / Version 2
  6. File size : 10.3 GiB
  7. Duration : 1 h 36 min
  8. Overall bit rate : 15.3 Mb/s
  9. Encoded date : UTC 2017-07-03 15:56:54
  10. Writing application : mkvmerge v13.0.0 ('The Juggler') 64bit
  11. Writing library : libebml v1.3.4 + libmatroska v1.4.5
  12.  
  13. Video
  14. ID : 1
  15. Format : AVC
  16. Format/Info : Advanced Video Codec
  17. Format profile : High@L4.1
  18. Format settings, CABAC : Yes
  19. Format settings, ReFrames : 5 frames
  20. Codec ID : V_MPEG4/ISO/AVC
  21. Duration : 1 h 36 min
  22. Bit rate : 13.4 Mb/s
  23. Width : 1 920 pixels
  24. Height : 804 pixels
  25. Display aspect ratio : 2.40:1
  26. Frame rate mode : Constant
  27. Frame rate : 24.000 FPS
  28. Color space : YUV
  29. Chroma subsampling : 4:2:0
  30. Bit depth : 8 bits
  31. Scan type : Progressive
  32. Bits/(Pixel*Frame) : 0.362
  33. Stream size : 8.99 GiB (88%)
  34. Writing library : x264 core 148 r2705 3f5ed56
  35. Encoding settings : cabac=1 / ref=5 / deblock=1:-2:-2 / analyse=0x3:0x133 / me=umh / subme=10 / psy=1 / psy_rd=1.05:0.05 / mixed_ref=1 / me_range=32 / chroma_me=1 / trellis=2 / 8x8dct=1 / cqm=0 / deadzone=21,11 / fast_pskip=0 / chroma_qp_offset=-3 / threads=12 / lookahead_threads=2 / sliced_threads=0 / nr=0 / decimate=0 / interlaced=0 / bluray_compat=0 / constrained_intra=0 / bframes=8 / b_pyramid=2 / b_adapt=2 / b_bias=0 / direct=3 / weightb=1 / open_gop=0 / weightp=2 / keyint=240 / keyint_min=24 / scenecut=40 / intra_refresh=0 / rc_lookahead=50 / rc=2pass / mbtree=0 / bitrate=13400 / ratetol=1.0 / qcomp=0.60 / qpmin=0 / qpmax=69 / qpstep=4 / cplxblur=20.0 / qblur=0.5 / vbv_maxrate=50000 / vbv_bufsize=62500 / nal_hrd=none / filler=0 / ip_ratio=1.40 / pb_ratio=1.30 / aq=3:0.80
  36. Language : French
  37. Default : Yes
  38. Forced : No
  39.  
  40. Audio #1
  41. ID : 2
  42. Format : AC-3
  43. Format/Info : Audio Coding 3
  44. Format settings, Endianness : Big
  45. Codec ID : A_AC3
  46. Duration : 1 h 36 min
  47. Bit rate mode : Constant
  48. Bit rate : 384 kb/s
  49. Channel(s) : 6 channels
  50. Channel positions : Front: L C R, Side: L R, LFE
  51. Sampling rate : 48.0 kHz
  52. Frame rate : 31.250 FPS (1536 spf)
  53. Bit depth : 16 bits
  54. Compression mode : Lossy
  55. Stream size : 264 MiB (3%)
  56. Title : iTunes
  57. Language : Russian
  58. Service kind : Complete Main
  59. Default : Yes
  60. Forced : No
  61.  
  62. Audio #2
  63. ID : 3
  64. Format : DTS
  65. Format/Info : Digital Theater Systems
  66. Mode : 16
  67. Format settings, Endianness : Big
  68. Codec ID : A_DTS
  69. Duration : 1 h 36 min
  70. Bit rate mode : Constant
  71. Bit rate : 1 509 kb/s
  72. Channel(s) : 6 channels
  73. Channel positions : Front: L C R, Side: L R, LFE
  74. Sampling rate : 48.0 kHz
  75. Frame rate : 93.750 FPS (512 spf)
  76. Bit depth : 24 bits
  77. Compression mode : Lossy
  78. Stream size : 1.01 GiB (10%)
  79. Title : Original
  80. Language : French
  81. Default : No
  82. Forced : No
  83.  
  84. Text
  85. ID : 4
  86. Format : UTF-8
  87. Codec ID : S_TEXT/UTF8
  88. Codec ID/Info : UTF-8 Plain Text
  89. Duration : 51 min 8 s
  90. Bit rate : 1 b/s
  91. Count of elements : 25
  92. Stream size : 636 Bytes (0%)
  93. Title : full
  94. Language : French
  95. Default : No
  96. Forced : No
  97.  
  98. Menu
  99. 00:00:00.000 : en:Chapter 1
  100. 00:09:13.292 : en:Chapter 2
  101. 00:16:19.833 : en:Chapter 3
  102. 00:24:08.250 : en:Chapter 4
  103. 00:29:06.000 : en:Chapter 5
  104. 00:37:59.750 : en:Chapter 6
  105. 00:51:30.708 : en:Chapter 7
  106. 01:00:55.375 : en:Chapter 8
  107. 01:06:40.458 : en:Chapter 9
  108. 01:14:31.292 : en:Chapter 10
  109. 01:19:53.875 : en:Chapter 11
  110. 01:27:58.000 : en:Chapter 12
RAW Paste Data