daily pastebin goal
85%
SHARE
TWEET

Untitled

a guest Dec 7th, 2017 56 Never
Not a member of Pastebin yet? Sign Up, it unlocks many cool features!
  1. INFO
  2. General
  3. RELEASE DATE 15/7/2011
  4. Complete name                    : Harry.Potter.and.the.Deathly.Hallows.Part.2.2011.TS.XVID.AC3_allycat.BBRG.avi
  5. Format                           : AVI
  6. Format/Info                      : Audio Video Interleave
  7. File size                        : 1.11 GiB
  8. Duration                         : 1h 56mn
  9. Overall bit rate                 : 1 355 Kbps
  10.  
  11. Video
  12. ID                               : 0
  13. Format                           : MPEG-4 Visual
  14. Format profile                   : Advanced Simple@L5
  15. Format settings, BVOP            : 2
  16. Format settings, QPel            : No
  17. Format settings, GMC             : No warppoints
  18. Format settings, Matrix          : Default (H.263)
  19. Codec ID                         : XVID
  20. Codec ID/Hint                    : XviD
  21. Duration                         : 1h 56mn
  22. Bit rate                         : 899 Kbps
  23. Width                            : 720 pixels
  24. Height                           : 304 pixels
  25. Display aspect ratio             : 2.35:1
  26. Frame rate                       : 25.000 fps
  27. Color space                      : YUV
  28. Chroma subsampling               : 4:2:0
  29. Bit depth                        : 8 bits
  30. Scan type                        : Progressive
  31. Compression mode                 : Lossy
  32. Bits/(Pixel*Frame)               : 0.164
  33. Stream size                      : 751 MiB (66%)
  34. Writing library                  : XviD 1.2.1 (UTC 2008-12-04)
  35.  
  36. Audio
  37. ID                               : 1
  38. Format                           : AC-3
  39. Format/Info                      : Audio Coding 3
  40. Codec ID                         : 2000
  41. Duration                         : 1h 56mn
  42. Bit rate mode                    : Constant
  43. Bit rate                         : 448 Kbps
  44. Channel(s)                       : 2 channels
  45. Sampling rate                    : 44.1 KHz
  46. Compression mode                 : Lossy
  47. Stream size                      : 374 MiB (33%)
  48. Alignment                        : Split accross interleaves
  49. Interleave, duration             : 70 ms (1.74 video frames)
  50. Interleave, preload duration     : 209 ms
  51.  
  52. PLOT:
  53. The final chapter begins as Harry, Ron, and Hermione continue their quest of finding and destroying the Dark Lord's three remaining Horcruxes, the magical items responsible for his immortality. But as the mystical Deathly Hallows are uncovered, and Voldemort finds out about their mission, the biggest battle begins and life as they know it will never be the same again.
  54.  
  55. CAST:
  56. Ralph Fiennes ... Lord Voldemort
  57. Michael Gambon ... Professor Albus Dumbledore
  58. Alan Rickman ... Professor Severus Snape
  59. Daniel Radcliffe ... Harry Potter
  60. Rupert Grint ... Ron Weasley
  61. Emma Watson ... Hermione Granger
  62. Evanna Lynch ... Luna Lovegood
  63. Domhnall Gleeson ... Bill Weasley
  64. Cl�mence Po�sy ... Fleur Delacour
  65. Warwick Davis ... Griphook / Professor Filius Flitwick
  66. John Hurt ... Ollivander
  67. Helena Bonham Carter ... Bellatrix Lestrange
  68.  
  69. SCREENS:
RAW Paste Data
Top