SHARE
TWEET

Untitled

a guest Jun 6th, 2019 74 Never
Not a member of Pastebin yet? Sign Up, it unlocks many cool features!
  1. General
  2. Unique ID                      : 213906576094230757403605877617631081208 (0xA0ECE87401BA9FBE2A31060757CEB2F8)
  3. Complete name                  : C:\Users\MYNAME\Desktop\MANDAR PRO GOOGLE DRIVE\FOLDER\MOVIE - UHD-4K-2160p-Blu-ray-Lossless - 5-5.mkv
  4. Format                         : Matroska
  5. Format version                 : Version 4
  6. File size                      : 9.43 GiB
  7. Duration                       : 17 min 25 s
  8. Overall bit rate mode          : Variable
  9. Overall bit rate               : 77.5 Mb/s
  10. Movie name                     : Batman Returns
  11. Encoded date                   : UTC 2019-06-06 02:52:54
  12. Writing application            : mkvmerge v34.0.0 ('Sight and Seen') 64-bit
  13. Writing library                : libebml v1.3.7 + libmatroska v1.5.0
  14.  
  15. Video
  16. ID                             : 1
  17. Format                         : HEVC
  18. Format/Info                    : High Efficiency Video Coding
  19. Format profile                 : Main 10@L5.1@High
  20. HDR format                     : SMPTE ST 2086, HDR10 compatible
  21. Codec ID                       : V_MPEGH/ISO/HEVC
  22. Duration                       : 17 min 23 s
  23. Bit rate                       : 71.8 Mb/s
  24. Width                          : 3 840 pixels
  25. Height                         : 2 160 pixels
  26. Display aspect ratio           : 16:9
  27. Frame rate mode                : Constant
  28. Frame rate                     : 23.976 (24000/1001) FPS
  29. Color space                    : YUV
  30. Chroma subsampling             : 4:2:0 (Type 2)
  31. Bit depth                      : 10 bits
  32. Bits/(Pixel*Frame)             : 0.361
  33. Stream size                    : 8.72 GiB (92%)
  34. Writing library                : ATEME Titan File 3.9.0 (4.9.0.0)        
  35. Language                       : English
  36. Default                        : Yes
  37. Forced                         : No
  38. Color range                    : Limited
  39. Color primaries                : BT.2020
  40. Transfer characteristics       : PQ
  41. Matrix coefficients            : BT.2020 non-constant
  42. Mastering display color primar : Display P3
  43. Mastering display luminance    : min: 0.0050 cd/m2, max: 4000 cd/m2
  44. Maximum Content Light Level    : 1993 cd/m2
  45. Maximum Frame-Average Light Le : 311 cd/m2
  46.  
  47. Audio #1
  48. ID                             : 2
  49. Format                         : MLP FBA 16-ch
  50. Format/Info                    : Meridian Lossless Packing FBA with 16-channel presentation
  51. Commercial name                : Dolby TrueHD with Dolby Atmos
  52. Codec ID                       : A_TRUEHD
  53. Duration                       : 17 min 23 s
  54. Bit rate mode                  : Variable
  55. Bit rate                       : 4 195 kb/s
  56. Maximum bit rate               : 7 407 kb/s
  57. Channel(s)                     : 8 channels
  58. Channel layout                 : L R C LFE Ls Rs Lb Rb
  59. Sampling rate                  : 48.0 kHz
  60. Frame rate                     : 1 200.000 FPS (40 SPF)
  61. Compression mode               : Lossless
  62. Stream size                    : 522 MiB (5%)
  63. Title                          : Dolby Atmos
  64. Language                       : English
  65. Default                        : Yes
  66. Forced                         : No
  67. Number of dynamic objects      : 15
  68. Bed channel count              : 1 channel
  69. Bed channel configuration      : LFE
  70.  
  71. Audio #2
  72. ID                             : 3
  73. Format                         : AC-3
  74. Format/Info                    : Audio Coding 3
  75. Commercial name                : Dolby Digital
  76. Codec ID                       : A_AC3
  77. Duration                       : 17 min 23 s
  78. Bit rate mode                  : Constant
  79. Bit rate                       : 640 kb/s
  80. Channel(s)                     : 6 channels
  81. Channel layout                 : L R C LFE Ls Rs
  82. Sampling rate                  : 48.0 kHz
  83. Frame rate                     : 31.250 FPS (1536 SPF)
  84. Bit depth                      : 16 bits
  85. Compression mode               : Lossy
  86. Delay relative to video        : 9 ms
  87. Stream size                    : 79.6 MiB (1%)
  88. Title                          : DD 5.1
  89. Language                       : English
  90. Service kind                   : Complete Main
  91. Default                        : No
  92. Forced                         : No
  93.  
  94. Audio #3
  95. ID                             : 4
  96. Format                         : AC-3
  97. Format/Info                    : Audio Coding 3
  98. Commercial name                : Dolby Digital
  99. Codec ID                       : A_AC3
  100. Duration                       : 17 min 23 s
  101. Bit rate mode                  : Constant
  102. Bit rate                       : 448 kb/s
  103. Channel(s)                     : 6 channels
  104. Channel layout                 : L R C LFE Ls Rs
  105. Sampling rate                  : 48.0 kHz
  106. Frame rate                     : 31.250 FPS (1536 SPF)
  107. Bit depth                      : 16 bits
  108. Compression mode               : Lossy
  109. Delay relative to video        : 9 ms
  110. Stream size                    : 55.7 MiB (1%)
  111. Title                          : DD 5.1
  112. Language                       : English
  113. Service kind                   : Complete Main
  114. Default                        : No
  115. Forced                         : No
  116.  
  117. Audio #4
  118. ID                             : 5
  119. Format                         : MPEG Audio
  120. Format version                 : Version 1
  121. Format profile                 : Layer 3
  122. Codec ID                       : A_MPEG/L3
  123. Codec ID/Hint                  : MP3
  124. Duration                       : 14 min 18 s
  125. Bit rate mode                  : Constant
  126. Bit rate                       : 128 kb/s
  127. Channel(s)                     : 2 channels
  128. Sampling rate                  : 44.1 kHz
  129. Frame rate                     : 38.281 FPS (1152 SPF)
  130. Compression mode               : Lossy
  131. Delay relative to video        : 21 ms
  132. Stream size                    : 13.1 MiB (0%)
  133. Title                          : Dublagem clássica
  134. Language                       : Portuguese
  135. Default                        : No
  136. Forced                         : No
  137.  
  138. Audio #5
  139. ID                             : 6
  140. Format                         : AC-3
  141. Format/Info                    : Audio Coding 3
  142. Commercial name                : Dolby Digital
  143. Codec ID                       : A_AC3
  144. Duration                       : 17 min 25 s
  145. Bit rate mode                  : Constant
  146. Bit rate                       : 192 kb/s
  147. Channel(s)                     : 1 channel
  148. Channel layout                 : C
  149. Sampling rate                  : 48.0 kHz
  150. Frame rate                     : 31.250 FPS (1536 SPF)
  151. Bit depth                      : 16 bits
  152. Compression mode               : Lossy
  153. Delay relative to video        : 9 ms
  154. Stream size                    : 23.9 MiB (0%)
  155. Title                          : DD 1.0
  156. Language                       : Portuguese
  157. Service kind                   : Complete Main
  158. Default                        : No
  159. Forced                         : No
  160.  
  161. Audio #6
  162. ID                             : 7
  163. Format                         : AC-3
  164. Format/Info                    : Audio Coding 3
  165. Commercial name                : Dolby Digital
  166. Codec ID                       : A_AC3
  167. Duration                       : 17 min 23 s
  168. Bit rate mode                  : Constant
  169. Bit rate                       : 192 kb/s
  170. Channel(s)                     : 2 channels
  171. Channel layout                 : L R
  172. Sampling rate                  : 48.0 kHz
  173. Frame rate                     : 31.250 FPS (1536 SPF)
  174. Bit depth                      : 16 bits
  175. Compression mode               : Lossy
  176. Delay relative to video        : 9 ms
  177. Stream size                    : 23.9 MiB (0%)
  178. Title                          : Comentários
  179. Language                       : English
  180. Service kind                   : Complete Main
  181. Default                        : No
  182. Forced                         : No
  183.  
  184. Text #1
  185. ID                             : 8
  186. Format                         : PGS
  187. Muxing mode                    : zlib
  188. Codec ID                       : S_HDMV/PGS
  189. Codec ID/Info                  : Picture based subtitle format used on BDs/HD-DVDs
  190. Duration                       : 17 min 8 s
  191. Bit rate                       : 7 791 b/s
  192. Count of elements              : 126
  193. Stream size                    : 979 KiB (0%)
  194. Language                       : English
  195. Default                        : Yes
  196. Forced                         : No
  197.  
  198. Text #2
  199. ID                             : 9
  200. Format                         : PGS
  201. Muxing mode                    : zlib
  202. Codec ID                       : S_HDMV/PGS
  203. Codec ID/Info                  : Picture based subtitle format used on BDs/HD-DVDs
  204. Duration                       : 11 min 5 s
  205. Bit rate                       : 12.5 kb/s
  206. Count of elements              : 146
  207. Stream size                    : 1 012 KiB (0%)
  208. Title                          : CC
  209. Language                       : English
  210. Default                        : No
  211. Forced                         : No
  212.  
  213. Text #3
  214. ID                             : 10
  215. Format                         : PGS
  216. Muxing mode                    : zlib
  217. Codec ID                       : S_HDMV/PGS
  218. Codec ID/Info                  : Picture based subtitle format used on BDs/HD-DVDs
  219. Duration                       : 17 min 8 s
  220. Bit rate                       : 7 431 b/s
  221. Count of elements              : 124
  222. Stream size                    : 933 KiB (0%)
  223. Language                       : Portuguese
  224. Default                        : No
  225. Forced                         : No
  226.  
  227. Menu
  228. 00:00:00.000                   : en:Chapter 34
  229. 00:01:41.809                   : en:Chapter 35
  230. 00:04:52.625                   : en:Chapter 36
  231. 00:06:42.652                   : en:Chapter 37
  232. 00:09:18.390                   : en:Chapter 38
  233. 00:11:47.998                   : en:Chapter 39
RAW Paste Data
We use cookies for various purposes including analytics. By continuing to use Pastebin, you agree to our use of cookies as described in the Cookies Policy. OK, I Understand
Not a member of Pastebin yet?
Sign Up, it unlocks many cool features!
 
Top