Guest User

E01

a guest
Jan 22nd, 2018
132
Never
Not a member of Pastebin yet? Sign Up, it unlocks many cool features!
  1. General
  2. Unique ID : 242284983923376547877607304402808312718 (0xB64663FBD3FB13468CA40AB2D15F938E)
  3. Complete name : Nagato Yuki-chan 01 Precious Place (BDRip 1080p AC3 10bit).mkv
  4. Format : Matroska
  5. Format version : Version 4 / Version 2
  6. File size : 530 MiB
  7. Duration : 24 min 12 s
  8. Overall bit rate : 3 062 kb/s
  9. Encoded date : UTC 2017-07-04 23:54:34 / UTC 2017-07-04T17:53:49Z
  10. Writing application : mkvmerge v9.6.0 ('Slave To Your Mind') 64bit
  11. Writing library : libebml v1.3.4 + libmatroska v1.4.5 / Lavf57.7.2
  12.  
  13. Video
  14. ID : 1
  15. Format : HEVC
  16. Format/Info : High Efficiency Video Coding
  17. Format profile : Main 10@L4@Main
  18. Codec ID : V_MPEGH/ISO/HEVC
  19. Duration : 24 min 12 s
  20. Bit rate : 1 721 kb/s
  21. Width : 1 920 pixels
  22. Height : 1 080 pixels
  23. Display aspect ratio : 16:9
  24. Frame rate mode : Constant
  25. Frame rate : 23.976 (24000/1001) FPS
  26. Color space : YUV
  27. Chroma subsampling : 4:2:0
  28. Bit depth : 10 bits
  29. Bits/(Pixel*Frame) : 0.035
  30. Stream size : 298 MiB (56%)
  31. Writing library : x265 2.3:[Windows][GCC 5.3.1][64 bit] 10bit
  32. Encoding settings : cpuid=34637823 / frame-threads=2 / numa-pools=4 / wpp / no-pmode / no-pme / no-psnr / no-ssim / log-level=2 / input-csp=1 / input-res=1920x1080 / interlace=0 / total-frames=0 / level-idc=0 / high-tier=1 / uhd-bd=0 / ref=3 / no-allow-non-conformance / no-repeat-headers / annexb / no-aud / no-hrd / info / hash=0 / no-temporal-layers / open-gop / min-keyint=24 / keyint=240 / bframes=4 / b-adapt=2 / b-pyramid / bframe-bias=0 / rc-lookahead=20 / lookahead-slices=6 / scenecut=40 / no-intra-refresh / ctu=64 / min-cu-size=8 / no-rect / no-amp / max-tu-size=32 / tu-inter-depth=1 / tu-intra-depth=1 / limit-tu=0 / rdoq-level=0 / dynamic-rd=0.00 / signhide / no-tskip / nr-intra=0 / nr-inter=0 / no-constrained-intra / strong-intra-smoothing / max-merge=2 / limit-refs=3 / no-limit-modes / me=1 / subme=2 / merange=57 / temporal-mvp / weightp / no-weightb / no-analyze-src-pics / deblock=0:0 / sao / no-sao-non-deblock / rd=3 / no-early-skip / rskip / no-fast-intra / no-tskip-fast / no-cu-lossless / no-b-intra / rdpenalty=0 / psy-rd=2.00 / psy-rdoq=0.00 / no-rd-refine / analysis-mode=0 / no-lossless / cbqpoffs=0 / crqpoffs=0 / rc=crf / crf=18.0 / qcomp=0.60 / qpstep=4 / stats-write=0 / stats-read=0 / ipratio=1.40 / pbratio=1.30 / aq-mode=1 / aq-strength=1.00 / cutree / zone-count=0 / no-strict-cbr / qg-size=32 / no-rc-grain / qpmax=69 / qpmin=0 / sar=1 / overscan=0 / videoformat=5 / range=0 / colorprim=1 / transfer=1 / colormatrix=1 / chromaloc=0 / display-window=0 / max-cll=0,0 / min-luma=0 / max-luma=1023 / log2-max-poc-lsb=8 / vui-timing-info / vui-hrd-info / slices=1 / opt-qp-pps / opt-ref-list-length-pps / no-multi-pass-opt-rps / scenecut-bias=0.05 / no-opt-cu-delta-qp / no-aq-motion / no-hdr
  33. Default : Yes
  34. Forced : No
  35. Color range : Limited
  36. Color primaries : BT.709
  37. Transfer characteristics : BT.709
  38. Matrix coefficients : BT.709
  39. Statistics Tags Issue : mkvmerge v9.6.0 ('Slave To Your Mind') 64bit 2017-07-04 23:54:34 / mkvmerge v9.6.0 ('Slave To Your Mind') 64bit 2017-07-04 23:54:34 / UTC 2017-07-04T17:53:49Z
  40. FromStats_BitRate : 1721329
  41. FromStats_Duration : 00:24:12.034000000
  42. FromStats_FrameCount : 34806
  43. FromStats_StreamSize : 312428583
  44.  
  45. Audio #1
  46. ID : 2
  47. Format : AC-3
  48. Format/Info : Audio Coding 3
  49. Codec ID : A_AC3
  50. Duration : 24 min 12 s
  51. Bit rate mode : Constant
  52. Bit rate : 640 kb/s
  53. Channel(s) : 6 channels
  54. Channel positions : Front: L C R, Side: L R, LFE
  55. Sampling rate : 48.0 kHz
  56. Frame rate : 31.250 FPS (1536 SPF)
  57. Bit depth : 16 bits
  58. Compression mode : Lossy
  59. Stream size : 111 MiB (21%)
  60. Title : English: 5.1ch
  61. Language : English
  62. Service kind : Complete Main
  63. Default : Yes
  64. Forced : No
  65. Statistics Tags Issue : mkvmerge v9.6.0 ('Slave To Your Mind') 64bit 2017-07-04 23:54:34 / mkvmerge v9.6.0 ('Slave To Your Mind') 64bit 2017-07-04 23:54:34 / UTC 2017-07-04T17:53:49Z
  66. FromStats_BitRate : 640000
  67. FromStats_Duration : 00:24:12.032000000
  68. FromStats_FrameCount : 45376
  69. FromStats_StreamSize : 116162560
  70.  
  71. Audio #2
  72. ID : 3
  73. Format : AC-3
  74. Format/Info : Audio Coding 3
  75. Codec ID : A_AC3
  76. Duration : 24 min 12 s
  77. Bit rate mode : Constant
  78. Bit rate : 640 kb/s
  79. Channel(s) : 2 channels
  80. Channel positions : Front: L R
  81. Sampling rate : 48.0 kHz
  82. Frame rate : 31.250 FPS (1536 SPF)
  83. Bit depth : 16 bits
  84. Compression mode : Lossy
  85. Stream size : 111 MiB (21%)
  86. Title : Japanese: Stereo
  87. Language : Japanese
  88. Service kind : Complete Main
  89. Default : No
  90. Forced : No
  91. Statistics Tags Issue : mkvmerge v9.6.0 ('Slave To Your Mind') 64bit 2017-07-04 23:54:34 / mkvmerge v9.6.0 ('Slave To Your Mind') 64bit 2017-07-04 23:54:34 / UTC 2017-07-04T17:53:49Z
  92. FromStats_BitRate : 640000
  93. FromStats_Duration : 00:24:12.032000000
  94. FromStats_FrameCount : 45376
  95. FromStats_StreamSize : 116162560
  96.  
  97. Text #1
  98. ID : 4
  99. Format : PGS
  100. Codec ID : S_HDMV/PGS
  101. Codec ID/Info : Picture based subtitle format used on BDs/HD-DVDs
  102. Title : English Signs/Songs
  103. Language : English
  104. Default : Yes
  105. Forced : Yes
  106. Statistics Tags Issue : mkvmerge v9.6.0 ('Slave To Your Mind') 64bit 2017-07-04 23:54:34 / mkvmerge v9.6.0 ('Slave To Your Mind') 64bit 2017-07-04 23:54:34 / UTC 2017-07-04T17:53:49Z
  107. FromStats_BitRate : 4559
  108. FromStats_Duration : 00:22:03.364000000
  109. FromStats_FrameCount : 68
  110. FromStats_StreamSize : 754245
  111.  
  112. Text #2
  113. ID : 5
  114. Format : PGS
  115. Codec ID : S_HDMV/PGS
  116. Codec ID/Info : Picture based subtitle format used on BDs/HD-DVDs
  117. Title : English Subtitles
  118. Language : English
  119. Default : No
  120. Forced : No
  121. Statistics Tags Issue : mkvmerge v9.6.0 ('Slave To Your Mind') 64bit 2017-07-04 23:54:34 / mkvmerge v9.6.0 ('Slave To Your Mind') 64bit 2017-07-04 23:54:34 / UTC 2017-07-04T17:53:49Z
  122. FromStats_BitRate : 54948
  123. FromStats_Duration : 00:23:42.546000000
  124. FromStats_FrameCount : 838
  125. FromStats_StreamSize : 9770799
  126.  
  127. Menu
  128. 00:00:00.000 : :Chapter 1
  129. 00:05:06.014 : :Chapter 2
  130. 00:11:26.102 : :Chapter 3
  131. 00:22:35.980 : :Chapter 4
  132. 00:24:05.945 : :Chapter 5
RAW Paste Data