Pastebin launched a little side project called VERYVIRAL.com, check it out ;-) Want more features on Pastebin? Sign Up, it's FREE!
Guest

Untitled

By: jelloman on Nov 15th, 2011  |  syntax: None  |  size: 4.49 KB  |  views: 1,435  |  expires: Never
download  |  raw  |  embed  |  report abuse  |  print
Text below is selected. Please press Ctrl+C to copy to your clipboard. (⌘+C on Mac)
  1. [IMG]http://img88.imageshack.us/img88/2977/towerheistver2xlg1.jpg[/IMG]
  2.  
  3.  
  4. [color=blue][size=5][b]Tower.Heist.2011.TS.XVID.AC3.Hive-CM8[/b][/size][/color]
  5.  
  6.  
  7. [b]Thx Hive
  8.  
  9. Sources:
  10.  
  11. Video: floppydisk  thx
  12. Audio: misere   thx
  13.  
  14. Encode:
  15.  
  16. german video had awesome quality, the first 10 mins are 3 different cams as it seems which are bit overbrightened or glary but after that quality is dvdscr like. good job. just sharpened video and made slight changes in brightness and contrast for some parts. looks very good
  17.  
  18. for the audio, well its a line, but had some problems, had some weird echo and unsynchronity between left and right channel, fixed that.
  19. cleaned it through. its a lot better now, some words in sentences were already muffled cant do anything about that.
  20. Fixed a couple of oose spots i found while syncing it back to the german video.
  21. check sample.
  22. all in all very watchable now.
  23. enjoy
  24.  
  25. Video: 720x304 @bitrate 1800 2pass
  26. Audio: English AC3 2.0 Stereo
  27. Sample: yes included[/b]
  28.  
  29.  
  30. [url]http://www.imdb.com/title/tt0471042/[/url]
  31.  
  32.  
  33. General
  34. Complete name                  : Tower.Heist.2011.TS.XVID.AC3.Hive-CM8.avi
  35. Format                         : AVI
  36. Format/Info                    : Audio Video Interleave
  37. File size                      : 1.42 GiB
  38. Duration                       : 1h 38mn
  39. Overall bit rate               : 2 064 Kbps
  40. Writing application            : Nandub v1.0rc2
  41. Writing library                : Nandub build 1853/release
  42.  
  43. Video
  44. ID                             : 0
  45. Format                         : MPEG-4 Visual
  46. Format profile                 : Advanced Simple@L5
  47. Format settings, BVOP          : 2
  48. Format settings, QPel          : Yes
  49. Format settings, GMC           : No warppoints
  50. Format settings, Matrix        : Default (H.263)
  51. Muxing mode                    : Packed bitstream
  52. Codec ID                       : XVID
  53. Codec ID/Hint                  : XviD
  54. Duration                       : 1h 38mn
  55. Bit rate                       : 1 799 Kbps
  56. Width                          : 720 pixels
  57. Height                         : 304 pixels
  58. Display aspect ratio           : 2.35:1
  59. Frame rate                     : 23.976 fps
  60. Color space                    : YUV
  61. Chroma subsampling             : 4:2:0
  62. Bit depth                      : 8 bits
  63. Scan type                      : Progressive
  64. Compression mode               : Lossy
  65. Bits/(Pixel*Frame)             : 0.343
  66. Stream size                    : 1.24 GiB (87%)
  67. Writing library                : XviD 1.2.1 (UTC 2008-12-04)
  68.  
  69. Audio
  70. ID                             : 1
  71. Format                         : AC-3
  72. Format/Info                    : Audio Coding 3
  73. Mode extension                 : CM (complete main)
  74. Codec ID                       : 2000
  75. Duration                       : 1h 38mn
  76. Bit rate mode                  : Constant
  77. Bit rate                       : 256 Kbps
  78. Channel(s)                     : 2 channels
  79. Channel positions              : Front: L R
  80. Sampling rate                  : 48.0 KHz
  81. Bit depth                      : 16 bits
  82. Compression mode               : Lossy
  83. Delay relative to video        : 80ms
  84. Stream size                    : 181 MiB (12%)
  85. Alignment                      : Split accross interleaves
  86. Interleave, duration           : 42 ms (1.00 video frame)
  87. Interleave, preload duration   : 500 ms
  88.  
  89.  
  90. Plot:
  91.  
  92. When a group of hard working guys find out they've fallen victim to a wealthy business man's Ponzi scheme,
  93. they conspire to rob his high-rise residence.
  94. Cast:
  95.  
  96. Ben Stiller    ...     Josh Kovacs
  97. Eddie Murphy    ...     Slide
  98. Casey Affleck    ...     Charlie
  99. Alan Alda    ...     Arthur Shaw
  100. Matthew Broderick    ...     Mr. Fitzhugh
  101.  
  102.  
  103. [img]http://img696.imageshack.us/img696/597/27280213.png[/img]
  104. [img]http://img141.imageshack.us/img141/607/totoz.png[/img]
  105. [img]http://img36.imageshack.us/img36/9184/tototod.png[/img]
  106. [img]http://img845.imageshack.us/img845/5769/totototo.png[/img]
  107. [img]http://img233.imageshack.us/img233/6884/tototototo.png[/img]
  108. [img]http://img215.imageshack.us/img215/9025/totototototo.png[/img]
  109. [img]http://img687.imageshack.us/img687/370/tototototototo.png[/img]
  110.  
  111.  
  112. [video=http://www.youtube.com/watch?v=Z4KXF7NWFRE]
  113.  
  114.  
  115. Greetz
  116.  
  117. ViSiON,SPK,SiC,SANTi,3LT0N,FUSiON,YanKeeS,MAGNET,THC,T0XiC,LKRG,FANTASIA-PLAY,FANTASIA-M,FLAWL3SS,
  118. WBZ,ZMG,BHRG,NOVA,D2U,Vik,Rapeseed,SAFC,goldadvance,MEMORY100,KaN1vE,Unevano,Pinnz,Wayne
  119. Mr Hive,and most P2P groups
  120. Great Work Guys :D
  121.  
  122. LOOKING FOR ANYTHING YOU WANT TO LOOK AND SOUND BETTER
  123.  
  124. CM8@hushmail.com
  125.  
clone this paste RAW Paste Data