Want more features on Pastebin? Sign Up, it's FREE!
Guest

The.Dark.Knight.2008.BDRip.1080p.x264.DTS.Audio-CHD

By: iamskywalker on Oct 3rd, 2012  |  syntax: None  |  size: 6.85 KB  |  views: 44  |  expires: Never
download  |  raw  |  embed  |  report abuse  |  print
Text below is selected. Please press Ctrl+C to copy to your clipboard. (⌘+C on Mac)
  1. DISK 1
  2. General
  3. Complete name                    : The.Dark.Knight.2008.BDRip.1080p.x264.DTS.Audio-CHD.D1.avi
  4. Format                           : AVI
  5. Format/Info                      : Audio Video Interleave
  6. Format profile                   : OpenDML
  7. File size                        : 4.35 GiB
  8. Duration                         : 49mn 31s
  9. Overall bit rate                 : 12.6 Mbps
  10. Writing application              : VirtualDubMod 1.5.10.1 (build 2439/release)
  11. Writing library                  : VirtualDubMod build 2439/release
  12.  
  13. Video
  14. Format                           : AVC
  15. Format/Info                      : Advanced Video Codec
  16. Format profile                   : High@L4.1
  17. Format settings, CABAC           : Yes
  18. Format settings, ReFrames        : 4 frames
  19. Codec ID                         : H264
  20. Duration                         : 49mn 31s
  21. Bit rate                         : 11.1 Mbps
  22. Nominal bit rate                 : 10.8 Mbps
  23. Width                            : 1920 pixels
  24. Height                           : 1080 pixels
  25. Display aspect ratio             : 16/9
  26. Frame rate                       : 23.976 fps
  27. Resolution                       : 24 bits
  28. Colorimetry                      : 4:2:0
  29. Scan type                        : Progressive
  30. Bits/(Pixel*Frame)               : 0.223
  31. Stream size                      : 3.83 GiB (88%)
  32. Writing library                  : x264 core 61 r965M 3d2983d
  33. Encoding settings                : cabac=1 / ref=4 / deblock=1:-3:-3 / analyse=0x3:0x113 / me=umh / subme=7 / psy_rd=1.6:1.6 / brdo=1 / mixed_ref=1 / me_range=28 / chroma_me=1 / trellis=1 / 8x8dct=1 / cqm=2 / deadzone=6,4 / chroma_qp_offset=-4 / threads=6 / nr=0 / decimate=1 / mbaff=0 / bframes=3 / b_pyramid=1 / b_adapt=1 / b_bias=0 / direct=3 / wpredb=1 / bime=1 / keyint=250 / keyint_min=25 / scenecut=40(pre) / rc=2pass / bitrate=10762 / ratetol=1.0 / qcomp=1.00 / qpmin=10 / qpmax=51 / qpstep=4 / cplxblur=20.0 / qblur=0.5 / ip_ratio=1.40 / pb_ratio=1.30 / aq=2:0.40
  34.  
  35. Audio
  36. Format                           : DTS
  37. Format/Info                      : Digital Theater Systems
  38. Codec ID                         : 2001
  39. Codec ID/Info                    : Digital Theater Systems
  40. Bit rate mode                    : Constant
  41. Bit rate                         : 1536 Kbps
  42. Channel(s)                       : 6 channels
  43. Channel positions                : Front: L C R, Surround: L R, LFE
  44. Sampling rate                    : 48.0 KHz
  45. Resolution                       : 24 bits
  46. Video delay                      : 1ms
  47. Stream size                      : 535 MiB (12%)
  48. Alignment                        : Split accross interleaves
  49. Interleave, duration             : 42 ms (1.00 video frame)
  50. Interleave, preload duration     : 491 ms
  51. __________________________________________
  52. DISK 2
  53. General
  54. Complete name                    : The.Dark.Knight.2008.BDRip.1080p.x264.DTS.Audio-CHD.D2.avi
  55. Format                           : AVI
  56. Format/Info                      : Audio Video Interleave
  57. Format profile                   : OpenDML
  58. File size                        : 4.36 GiB
  59. Duration                         : 48mn 9s
  60. Overall bit rate                 : 13.0 Mbps
  61. Writing application              : VirtualDubMod 1.5.10.1 (build 2439/release)
  62. Writing library                  : VirtualDubMod build 2439/release
  63.  
  64. Video
  65. Format                           : AVC
  66. Format/Info                      : Advanced Video Codec
  67. Format profile                   : High@L4.1
  68. Format settings, CABAC           : Yes
  69. Format settings, ReFrames        : 4 frames
  70. Codec ID                         : H264
  71. Duration                         : 48mn 9s
  72. Bit rate                         : 11.4 Mbps
  73. Width                            : 1920 pixels
  74. Height                           : 1080 pixels
  75. Display aspect ratio             : 16/9
  76. Frame rate                       : 23.976 fps
  77. Resolution                       : 24 bits
  78. Colorimetry                      : 4:2:0
  79. Scan type                        : Progressive
  80. Bits/(Pixel*Frame)               : 0.230
  81. Stream size                      : 3.85 GiB (88%)
  82.  
  83. Audio
  84. Format                           : DTS
  85. Format/Info                      : Digital Theater Systems
  86. Codec ID                         : 2001
  87. Codec ID/Info                    : Digital Theater Systems
  88. Bit rate mode                    : Constant
  89. Bit rate                         : 1536 Kbps
  90. Channel(s)                       : 6 channels
  91. Channel positions                : Front: L C R, Surround: L R, LFE
  92. Sampling rate                    : 48.0 KHz
  93. Resolution                       : 24 bits
  94. Video delay                      : 2ms
  95. Stream size                      : 520 MiB (12%)
  96. Alignment                        : Split accross interleaves
  97. Interleave, duration             : 42 ms (1.00 video frame)
  98. Interleave, preload duration     : 491 ms
  99. __________________________________________
  100. DISK 3
  101. General
  102. Complete name                    : The.Dark.Knight.2008.BDRip.1080p.x264.DTS.Audio-CHD.D3.avi
  103. Format                           : AVI
  104. Format/Info                      : Audio Video Interleave
  105. Format profile                   : OpenDML
  106. File size                        : 4.35 GiB
  107. Duration                         : 54mn 32s
  108. Overall bit rate                 : 11.4 Mbps
  109. Writing application              : VirtualDubMod 1.5.10.1 (build 2439/release)
  110. Writing library                  : VirtualDubMod build 2439/release
  111.  
  112. Video
  113. Format                           : AVC
  114. Format/Info                      : Advanced Video Codec
  115. Format profile                   : High@L4.1
  116. Format settings, CABAC           : Yes
  117. Format settings, ReFrames        : 4 frames
  118. Codec ID                         : H264
  119. Duration                         : 54mn 32s
  120. Bit rate                         : 9897 Kbps
  121. Width                            : 1920 pixels
  122. Height                           : 1080 pixels
  123. Display aspect ratio             : 16/9
  124. Frame rate                       : 23.976 fps
  125. Resolution                       : 24 bits
  126. Colorimetry                      : 4:2:0
  127. Scan type                        : Progressive
  128. Bits/(Pixel*Frame)               : 0.199
  129. Stream size                      : 3.77 GiB (87%)
  130.  
  131. Audio
  132. Format                           : DTS
  133. Format/Info                      : Digital Theater Systems
  134. Codec ID                         : 2001
  135. Codec ID/Info                    : Digital Theater Systems
  136. Bit rate mode                    : Constant
  137. Bit rate                         : 1536 Kbps
  138. Channel(s)                       : 6 channels
  139. Channel positions                : Front: L C R, Surround: L R, LFE
  140. Sampling rate                    : 48.0 KHz
  141. Resolution                       : 24 bits
  142. Video delay                      : 2ms
  143. Stream size                      : 589 MiB (13%)
  144. Alignment                        : Split accross interleaves
  145. Interleave, duration             : 42 ms (1.00 video frame)
  146. Interleave, preload duration     : 491 ms
clone this paste RAW Paste Data