This week only. Pastebin PRO Accounts Christmas Special! Don't miss out!Want more features on Pastebin? Sign Up, it's FREE!
Guest

X-Doom-wyild1

By: a guest on Apr 25th, 2010  |  syntax: None  |  size: 5.73 KB  |  views: 120  |  expires: Never
download  |  raw  |  embed  |  report abuse  |  print
Text below is selected. Please press Ctrl+C to copy to your clipboard. (⌘+C on Mac)
  1. mediainfo Doom.1080p.BluRay.mkv
  2. General
  3. Complete name                    : Doom.1080p.BluRay.mkv
  4. Format                           : Matroska
  5. File size                        : 7.92 GiB
  6. Duration                         : 1h 52mn
  7. Overall bit rate                 : 10.1 Mbps
  8. Encoded date                     : UTC 2009-08-28 16:23:42
  9. Writing application              : mkvmerge v2.9.7 ('Tenderness') built on Jul  1 2009 18:43:35
  10. Writing library                  : libebml v0.7.7 + libmatroska v0.8.1
  11.  
  12. Video
  13. ID                               : 1
  14. Format                           : AVC
  15. Format/Info                      : Advanced Video Codec
  16. Format profile                   : High@L4.1
  17. Format settings, CABAC           : Yes
  18. Format settings, ReFrames        : 5 frames
  19. Muxing mode                      : Container profile=Unknown@4.1
  20. Codec ID                         : V_MPEG4/ISO/AVC
  21. Duration                         : 1h 52mn
  22. Bit rate                         : 8 343 Kbps
  23. Nominal bit rate                 : 8 542 Kbps
  24. Width                            : 1 920 pixels
  25. Height                           : 816 pixels
  26. Display aspect ratio             : 2.35:1
  27. Frame rate                       : 23.976 fps
  28. Resolution                       : 24 bits
  29. Colorimetry                      : 4:2:0
  30. Scan type                        : Progressive
  31. Bits/(Pixel*Frame)               : 0.222
  32. Stream size                      : 6.56 GiB (83%)
  33. Writing library                  : x264 core 68 r1183M f21daff
  34. Encoding settings                : cabac=1 / ref=5 / deblock=1:0:0 / analyse=0x3:0x133 / me=umh / subme=7 / psy_rd=1.0:0.0 / mixed_ref=1 / me_range=16 / chroma_me=1 / trellis=1 / 8x8dct=1 / cqm=0 / deadzone=21,11 / chroma_qp_offset=-2 / threads=6 / nr=0 / decimate=0 / mbaff=0 / bframes=3 / b_pyramid=1 / b_adapt=1 / b_bias=0 / direct=1 / wpredb=1 / keyint=250 / keyint_min=25 / scenecut=40 / rc=2pass / bitrate=8542 / ratetol=1.0 / qcomp=0.60 / qpmin=10 / qpmax=51 / qpstep=4 / cplxblur=20.0 / qblur=0.5 / ip_ratio=1.40 / pb_ratio=1.30 / aq=1:1.00
  35. Language                         : English
  36.  
  37. Audio
  38. ID                               : 4
  39. Format                           : DTS
  40. Format/Info                      : Digital Theater Systems
  41. Codec ID                         : A_DTS
  42. Duration                         : 1h 52mn
  43. Bit rate mode                    : Constant
  44. Bit rate                         : 1 510 Kbps
  45. Channel(s)                       : 6 channels
  46. Channel positions                : Front: L C R, Surround: L R, LFE
  47. Sampling rate                    : 48.0 KHz
  48. Resolution                       : 24 bits
  49. Stream size                      : 1.19 GiB (15%)
  50. Title                            : English
  51. Language                         : English
  52.  
  53. Text #1
  54. ID                               : 2
  55. Format                           : UTF-8
  56. Codec ID                         : S_TEXT/UTF8
  57. Codec ID/Info                    : UTF-8 Plain Text
  58. Title                            : Swedish
  59. Language                         : Swedish
  60.  
  61. Text #2
  62. ID                               : 3
  63. Format                           : UTF-8
  64. Codec ID                         : S_TEXT/UTF8
  65. Codec ID/Info                    : UTF-8 Plain Text
  66. Title                            : Danish
  67. Language                         : Danish
  68.  
  69. Text #3
  70. ID                               : 5
  71. Format                           : UTF-8
  72. Codec ID                         : S_TEXT/UTF8
  73. Codec ID/Info                    : UTF-8 Plain Text
  74. Title                            : Dutch
  75. Language                         : Dutch
  76.  
  77. Text #4
  78. ID                               : 6
  79. Format                           : UTF-8
  80. Codec ID                         : S_TEXT/UTF8
  81. Codec ID/Info                    : UTF-8 Plain Text
  82. Title                            : English
  83. Language                         : English
  84.  
  85. Text #5
  86. ID                               : 7
  87. Format                           : UTF-8
  88. Codec ID                         : S_TEXT/UTF8
  89. Codec ID/Info                    : UTF-8 Plain Text
  90. Title                            : Finnish
  91. Language                         : Finnish
  92.  
  93. Text #6
  94. ID                               : 8
  95. Format                           : UTF-8
  96. Codec ID                         : S_TEXT/UTF8
  97. Codec ID/Info                    : UTF-8 Plain Text
  98. Title                            : French
  99. Language                         : French
  100.  
  101. Text #7
  102. ID                               : 9
  103. Format                           : UTF-8
  104. Codec ID                         : S_TEXT/UTF8
  105. Codec ID/Info                    : UTF-8 Plain Text
  106. Title                            : German
  107. Language                         : German
  108.  
  109. Text #8
  110. ID                               : 10
  111. Format                           : UTF-8
  112. Codec ID                         : S_TEXT/UTF8
  113. Codec ID/Info                    : UTF-8 Plain Text
  114. Title                            : italian
  115. Language                         : Italian
  116.  
  117. Text #9
  118. ID                               : 11
  119. Format                           : UTF-8
  120. Codec ID                         : S_TEXT/UTF8
  121. Codec ID/Info                    : UTF-8 Plain Text
  122. Title                            : Norwegian
  123. Language                         : Norwegian
  124.  
  125. Text #10
  126. ID                               : 12
  127. Format                           : UTF-8
  128. Codec ID                         : S_TEXT/UTF8
  129. Codec ID/Info                    : UTF-8 Plain Text
  130. Title                            : Portuguese
  131. Language                         : Portuguese
  132.  
  133. Text #11
  134. ID                               : 13
  135. Format                           : UTF-8
  136. Codec ID                         : S_TEXT/UTF8
  137. Codec ID/Info                    : UTF-8 Plain Text
  138. Title                            : Spanish
  139. Language                         : Spanish
clone this paste RAW Paste Data