This week only. Pastebin PRO Accounts Christmas Special! Don't miss out!Want more features on Pastebin? Sign Up, it's FREE!
Guest

X-DieHard4-wyild1

By: a guest on Apr 25th, 2010  |  syntax: None  |  size: 3.40 KB  |  views: 84  |  expires: Never
download  |  raw  |  embed  |  report abuse  |  print
Text below is selected. Please press Ctrl+C to copy to your clipboard. (⌘+C on Mac)
  1. mediainfo Die.Hard.4.0.Live.Free.or.Die.Hard.BluRay.1080p.mkv
  2. General
  3. Complete name                    : Die.Hard.4.0.Live.Free.or.Die.Hard.BluRay.1080p.mkv
  4. Format                           : Matroska
  5. File size                        : 8.69 GiB
  6. Duration                         : 2h 8mn
  7. Overall bit rate                 : 9 660 Kbps
  8. Encoded date                     : UTC 2008-05-26 21:09:30
  9. Writing application              : mkvmerge v2.2.0 ('Turn It On Again') built on Mar  4 2008 12:58:26
  10. Writing library                  : libebml v0.7.7 + libmatroska v0.8.1
  11.  
  12. Video
  13. ID                               : 1
  14. Format                           : AVC
  15. Format/Info                      : Advanced Video Codec
  16. Format profile                   : High@L4.1
  17. Format settings, CABAC           : Yes
  18. Format settings, ReFrames        : 4 frames
  19. Muxing mode                      : Container profile=Unknown@4.1
  20. Codec ID                         : V_MPEG4/ISO/AVC
  21. Duration                         : 2h 8mn
  22. Bit rate                         : 7 958 Kbps
  23. Nominal bit rate                 : 8 184 Kbps
  24. Width                            : 1 920 pixels
  25. Height                           : 800 pixels
  26. Display aspect ratio             : 2.40:1
  27. Frame rate                       : 23.976 fps
  28. Resolution                       : 24 bits
  29. Colorimetry                      : 4:2:0
  30. Scan type                        : Progressive
  31. Bits/(Pixel*Frame)               : 0.216
  32. Stream size                      : 7.15 GiB (82%)
  33. Title                            : X264 - 2 passes FGO patched
  34. Writing library                  : x264 core 59 r839M 27c3071
  35. Encoding settings                : cabac=1 / ref=4 / deblock=1:-1:-1 / analyse=0x3:0x113 / me=umh / subme=7 / me-prepass=0 / brdo=1 / mixed_ref=1 / me_range=16 / chroma_me=1 / trellis=1 / 8x8dct=1 / cqm=0 / deadzone=21,11 / chroma_qp_offset=0 / threads=3 / nr=0 / decimate=0 / mbaff=0 / fgo=10 / bframes=8 / b_pyramid=1 / b_adapt=1 / b_bias=0 / direct=1 / wpredb=1 / bime=1 / keyint=250 / keyint_min=25 / scenecut=40(pre) / rc=2pass / bitrate=8184 / ratetol=2.0 / rceq='blurCplx^(1-qComp)' / qcomp=1.00 / qpmin=10 / qpmax=51 / qpstep=4 / cplxblur=20.0 / qblur=0.5 / vbv_maxrate=38000 / vbv_bufsize=30000 / ip_ratio=1.40 / pb_ratio=1.15 / aq=2:1.00
  36. Language                         : English
  37.  
  38. Audio
  39. ID                               : 2
  40. Format                           : DTS
  41. Format/Info                      : Digital Theater Systems
  42. Codec ID                         : A_DTS
  43. Duration                         : 2h 8mn
  44. Bit rate mode                    : Constant
  45. Bit rate                         : 1 510 Kbps
  46. Channel(s)                       : 6 channels
  47. Channel positions                : Front: L C R, Surround: L R, LFE
  48. Sampling rate                    : 48.0 KHz
  49. Resolution                       : 24 bits
  50. Stream size                      : 1.36 GiB (16%)
  51. Title                            : DTS - 1536 kbit\s
  52. Language                         : English
  53.  
  54. Text #1
  55. ID                               : 3
  56. Format                           : UTF-8
  57. Codec ID                         : S_TEXT/UTF8
  58. Codec ID/Info                    : UTF-8 Plain Text
  59. Language                         : English
  60.  
  61. Text #2
  62. ID                               : 4
  63. Format                           : UTF-8
  64. Codec ID                         : S_TEXT/UTF8
  65. Codec ID/Info                    : UTF-8 Plain Text
  66. Language                         : Dutch
clone this paste RAW Paste Data