This week only. Pastebin PRO Accounts Christmas Special! Don't miss out!Want more features on Pastebin? Sign Up, it's FREE!
Guest

X-CoupleR-wyild1

By: a guest on Apr 25th, 2010  |  syntax: None  |  size: 3.02 KB  |  views: 95  |  expires: Never
download  |  raw  |  embed  |  report abuse  |  print
Text below is selected. Please press Ctrl+C to copy to your clipboard. (⌘+C on Mac)
  1. mediainfo Couples.Retreat.1080p.BluRay.mkv
  2. General
  3. Complete name                    : Couples.Retreat.1080p.BluRay.mkv
  4. Format                           : Matroska
  5. File size                        : 7.95 GiB
  6. Duration                         : 1h 53mn
  7. Overall bit rate                 : 10.0 Mbps
  8. Encoded date                     : UTC 2010-01-26 13:19:22
  9. Writing application              : mkvmerge v2.9.8 ('C'est le bon') built on Aug 13 2009 12:49:06
  10. Writing library                  : libebml v0.7.7 + libmatroska v0.8.1
  11.  
  12. Video
  13. ID                               : 3
  14. Format                           : AVC
  15. Format/Info                      : Advanced Video Codec
  16. Format profile                   : High@L4.1
  17. Format settings, CABAC           : Yes
  18. Format settings, ReFrames        : 4 frames
  19. Muxing mode                      : Container profile=Unknown@4.1
  20. Codec ID                         : V_MPEG4/ISO/AVC
  21. Duration                         : 1h 53mn
  22. Bit rate                         : 8 300 Kbps
  23. Nominal bit rate                 : 8 498 Kbps
  24. Width                            : 1 920 pixels
  25. Height                           : 1 040 pixels
  26. Display aspect ratio             : 16:9
  27. Frame rate                       : 23.976 fps
  28. Resolution                       : 24 bits
  29. Colorimetry                      : 4:2:0
  30. Scan type                        : Progressive
  31. Bits/(Pixel*Frame)               : 0.173
  32. Stream size                      : 6.58 GiB (83%)
  33. Writing library                  : x264 core 83 r1400 20fa784
  34. Encoding settings                : cabac=1 / ref=4 / deblock=1:0:0 / analyse=0x3:0x133 / me=umh / subme=7 / psy=1 / psy_rd=1.0:0.0 / mixed_ref=1 / me_range=16 / chroma_me=1 / trellis=1 / 8x8dct=1 / cqm=0 / deadzone=21,11 / fast_pskip=1 / chroma_qp_offset=-2 / threads=6 / sliced_threads=0 / nr=0 / decimate=1 / mbaff=0 / constrained_intra=0 / bframes=3 / b_pyramid=2 / b_adapt=2 / b_bias=0 / direct=3 / wpredb=1 / wpredp=2 / keyint=250 / keyint_min=25 / scenecut=40 / intra_refresh=0 / rc=2pass / mbtree=0 / bitrate=8498 / ratetol=1.0 / qcomp=0.60 / qpmin=10 / qpmax=51 / qpstep=4 / cplxblur=20.0 / qblur=0.5 / ip_ratio=1.40 / pb_ratio=1.30 / aq=1:1.00
  35. Language                         : English
  36.  
  37. Audio
  38. ID                               : 1
  39. Format                           : DTS
  40. Format/Info                      : Digital Theater Systems
  41. Codec ID                         : A_DTS
  42. Duration                         : 1h 53mn
  43. Bit rate mode                    : Constant
  44. Bit rate                         : 1 510 Kbps
  45. Channel(s)                       : 6 channels
  46. Channel positions                : Front: L C R, Surround: L R, LFE
  47. Sampling rate                    : 48.0 KHz
  48. Resolution                       : 24 bits
  49. Stream size                      : 1.20 GiB (15%)
  50. Language                         : English
  51.  
  52. Text
  53. ID                               : 2
  54. Format                           : UTF-8
  55. Codec ID                         : S_TEXT/UTF8
  56. Codec ID/Info                    : UTF-8 Plain Text
  57. Language                         : English
clone this paste RAW Paste Data