Want more features on Pastebin? Sign Up, it's FREE!
Guest

X-Eternal-wyild1

By: a guest on Apr 25th, 2010  |  syntax: None  |  size: 3.11 KB  |  views: 71  |  expires: Never
download  |  raw  |  embed  |  report abuse  |  print
Text below is selected. Please press Ctrl+C to copy to your clipboard. (⌘+C on Mac)
  1. mediainfo Eternal.Sunshine.of.the.Spotless.Mind.1080p.HDDVD.mkv
  2. General
  3. Complete name                    : Eternal.Sunshine.of.the.Spotless.Mind.1080p.HDDVD.mkv
  4. Format                           : Matroska
  5. File size                        : 8.75 GiB
  6. Duration                         : 1h 47mn
  7. Overall bit rate                 : 11.6 Mbps
  8. Encoded date                     : UTC 2008-04-26 00:33:18
  9. Writing application              : mkvmerge v2.2.0 ('Turn It On Again') built on Mar  4 2008 12:58:26
  10. Writing library                  : libebml v0.7.7 + libmatroska v0.8.1
  11.  
  12. Video
  13. ID                               : 1
  14. Format                           : AVC
  15. Format/Info                      : Advanced Video Codec
  16. Format profile                   : High@L4.1
  17. Format settings, CABAC           : Yes
  18. Format settings, ReFrames        : 4 frames
  19. Muxing mode                      : Container profile=Unknown@4.1
  20. Codec ID                         : V_MPEG4/ISO/AVC
  21. Duration                         : 1h 47mn
  22. Bit rate                         : 9 873 Kbps
  23. Nominal bit rate                 : 10.1 Mbps
  24. Width                            : 1 920 pixels
  25. Height                           : 1 040 pixels
  26. Display aspect ratio             : 16:9
  27. Frame rate                       : 23.976 fps
  28. Resolution                       : 24 bits
  29. Colorimetry                      : 4:2:0
  30. Scan type                        : Progressive
  31. Bits/(Pixel*Frame)               : 0.206
  32. Stream size                      : 7.43 GiB (85%)
  33. Writing library                  : x264 core 59 r819M 0414d78
  34. Encoding settings                : cabac=1 / ref=4 / deblock=1:-3:-3 / analyse=0x3:0x113 / me=umh / subme=6 / me-prepass=0 / brdo=1 / mixed_ref=1 / me_range=16 / chroma_me=1 / trellis=1 / 8x8dct=1 / cqm=2 / deadzone=21,11 / chroma_qp_offset=0 / threads=3 / nr=0 / decimate=1 / mbaff=0 / bframes=3 / b_pyramid=1 / b_adapt=1 / b_bias=0 / direct=3 / wpredb=1 / bime=1 / keyint=250 / keyint_min=25 / scenecut=40(pre) / rc=2pass / bitrate=10101 / ratetol=1.0 / rceq='blurCplx^(1-qComp)' / qcomp=1.00 / qpmin=10 / qpmax=51 / qpstep=4 / cplxblur=20.0 / qblur=0.5 / ip_ratio=1.40 / pb_ratio=1.30 / aq=2:1.00
  35. Language                         : English
  36.  
  37. Audio
  38. ID                               : 2
  39. Format                           : DTS
  40. Format/Info                      : Digital Theater Systems
  41. Codec ID                         : A_DTS
  42. Duration                         : 1h 47mn
  43. Bit rate mode                    : Constant
  44. Bit rate                         : 1 510 Kbps
  45. Channel(s)                       : 6 channels
  46. Channel positions                : Front: L C R, Surround: L R, LFE
  47. Sampling rate                    : 48.0 KHz
  48. Resolution                       : 24 bits
  49. Stream size                      : 1.14 GiB (13%)
  50. Title                            : DTS - 1536 Kbps
  51. Language                         : English
  52.  
  53. Text
  54. ID                               : 3
  55. Format                           : UTF-8
  56. Codec ID                         : S_TEXT/UTF8
  57. Codec ID/Info                    : UTF-8 Plain Text
  58. Title                            : SRT - DVDRip
  59. Language                         : Turkish
clone this paste RAW Paste Data