Pastebin is 300% more awesome when you are logged in. Sign Up, it's FREE!
Guest

get_iplayer recording a radio programme

By: a guest on Dec 20th, 2010  |  syntax: None  |  size: 3.76 KB  |  hits: 302  |  expires: Never
download  |  raw  |  embed  |  report abuse  |  print
Text below is selected. Please press Ctrl+C to copy to your clipboard. (⌘+C on Mac)
  1. INFO: Checking existence of default version
  2. INFO: flashaacstd1,flashaudio1,rtspaudio1,flashaaclow1,wma1 modes will be tried for version default
  3. INFO: Trying flashaacstd1 mode to record radio: The Skivers: Series 3 - Episode 5
  4. INFO: File name prefix = The_Skivers_Series_3_-_Episode_5_b00jhmlm_default                
  5. WARNING: Your version of flvstreamer/rtmpdump does not support SWF Verification
  6. FLVStreamer v2.1c1
  7. (c) 2010 Andrej Stepanchuk, Howard Chu, The Flvstreamer Team; license: GPL
  8. Connecting ...
  9. Starting download at: 0.000 kB
  10. Metadata:
  11.   duration              2160.06
  12.   moovPosition          36.00
  13.   audiocodecid          mp4a
  14.   aacaot                2.00
  15.   audiosamplerate       44100.00
  16.   ©cmt                 Phillip Schofield re-lives Going Live days, with Nick Golsen and Tim de Jongh.
  17.   cprt                  British Broadcasting Corporation © 2010, all rights reserved.
  18.   ©gen                 Podcast
  19.   ©nam                 The Skivers - Series 3 15 12 2010
  20.   ©day                 2010
  21. trackinfo:
  22.   length                95258624.00
  23.   timescale             44100.00
  24.   language              und
  25. sampledescription:
  26.   sampletype            mp4a
  27. 35289.330 kB / 2159.62 sec (99.9%)
  28. Download complete
  29. FFmpeg version 0.6-4:0.6-2ubuntu6, Copyright (c) 2000-2010 the FFmpeg developers
  30.   built on Oct  5 2010 22:36:53 with gcc 4.4.5
  31.   configuration: --extra-version=4:0.6-2ubuntu6 --prefix=/usr --enable-avfilter --enable-avfilter-lavf --enable-vdpau --enable-bzlib --enable-libgsm --enable-libschroedinger --enable-libspeex --enable-libtheora --enable-libvorbis --enable-vaapi --enable-pthreads --enable-zlib --enable-libvpx --disable-stripping --enable-runtime-cpudetect --enable-gpl --enable-postproc --enable-x11grab --enable-libdc1394 --enable-shared --disable-static
  32.   WARNING: library configuration mismatch
  33.   libavutil   configuration: --extra-version=4:0.6-2ubuntu3+medibuntu1 --prefix=/usr --enable-avfilter --enable-avfilter-lavf --enable-vdpau --enable-bzlib --enable-libdirac --enable-libgsm --enable-libopenjpeg --enable-libschroedinger --enable-libspeex --enable-libtheora --enable-libvorbis --enable-vaapi --enable-pthreads --enable-zlib --enable-libvpx --disable-stripping --enable-runtime-cpudetect --enable-libmp3lame --enable-libfaac --enable-nonfree --enable-gpl --enable-postproc --enable-x11grab --enable-libfaad --enable-libxvid --enable-libx264 --enable-librtmp --enable-libopencore-amrnb --enable-version3 --enable-libopencore-amrwb --enable-version3 --enable-libdc1394 --enable-shared --disable-static
  34.   libavutil     50.15. 1 / 50.15. 1
  35.   libavcodec    52.72. 2 / 52.72. 2
  36.   libavformat   52.64. 2 / 52.64. 2
  37.   libavdevice   52. 2. 0 / 52. 2. 0
  38.   libavfilter    1.19. 0 /  1.19. 0
  39.   libswscale     0.11. 0 /  0.11. 0
  40.   libpostproc   51. 2. 0 / 51. 2. 0
  41. [flv @ 0xf57420]max_analyze_duration reached
  42. [flv @ 0xf57420]Estimating duration from bitrate, this may be inaccurate
  43. Input #0, flv, from '/home/ian/Radio/The_Skivers_Series_3_-_Episode_5_b00jhmlm_default.partial.aac.flv':
  44.   Metadata:
  45.     duration        : 2160
  46.     moovPosition    : 36
  47.     audiocodecid    : mp4a
  48.     aacaot          : 2
  49.     audiosamplerate : 44100
  50.     audiochannels   : 2
  51.   Duration: 00:36:00.06, start: 0.000000, bitrate: N/A
  52.     Stream #0.0: Audio: aac, 44100 Hz, stereo, s16
  53. Output #0, adts, to '/home/ian/Radio/The_Skivers_Series_3_-_Episode_5_b00jhmlm_default.partial.aac':
  54.   Metadata:
  55.     encoder         : Lavf52.64.2
  56.     Stream #0.0: Audio: aac, 44100 Hz, stereo
  57. Stream mapping:
  58.   Stream #0.0 -> #0.0
  59. Press [q] to stop encoding
  60. size=   34387kB time=2160.06 bitrate= 130.4kbits/s    
  61. video:0kB audio:33751kB global headers:0kB muxing overhead 1.884155%
  62. INFO: Recorded /home/ian/Radio/The_Skivers_Series_3_-_Episode_5_b00jhmlm_default.aac
  63.  
  64. INFO: id3 tagging aac file