Want more features on Pastebin? Sign Up, it's FREE!
Guest

Ferris-wyild1

By: a guest on Apr 25th, 2010  |  syntax: None  |  size: 3.80 KB  |  views: 68  |  expires: Never
download  |  raw  |  embed  |  report abuse  |  print
Text below is selected. Please press Ctrl+C to copy to your clipboard. (⌘+C on Mac)
  1.  mediainfo Ferris.Buellers.Day.Off.1080p.BluRay.mkv
  2. General
  3. Complete name                    : Ferris.Buellers.Day.Off.1080p.BluRay.mkv
  4. Format                           : Matroska
  5. File size                        : 12.0 GiB
  6. Duration                         : 1h 43mn
  7. Overall bit rate                 : 16.6 Mbps
  8. Encoded date                     : UTC 2009-05-31 12:58:38
  9. Writing application              : mkvmerge v2.7.0 ('Do It Again') built on Apr 15 2009 00:27:10
  10. Writing library                  : libebml v0.7.7 + libmatroska v0.8.1
  11.  
  12. Video
  13. ID                               : 1
  14. Format                           : AVC
  15. Format/Info                      : Advanced Video Codec
  16. Format profile                   : High@L4.1
  17. Format settings, CABAC           : Yes
  18. Format settings, ReFrames        : 5 frames
  19. Muxing mode                      : Container profile=Unknown@4.1
  20. Codec ID                         : V_MPEG4/ISO/AVC
  21. Duration                         : 1h 42mn
  22. Bit rate                         : 14.8 Mbps
  23. Nominal bit rate                 : 15.1 Mbps
  24. Width                            : 1 920 pixels
  25. Height                           : 816 pixels
  26. Display aspect ratio             : 2.35:1
  27. Frame rate                       : 23.976 fps
  28. Resolution                       : 24 bits
  29. Colorimetry                      : 4:2:0
  30. Scan type                        : Progressive
  31. Bits/(Pixel*Frame)               : 0.394
  32. Stream size                      : 10.6 GiB (89%)
  33. Title                            : 15 Mbp/s AVC MPEG-4
  34. Writing library                  : x264 core 67 r1162M f7bfcfa
  35. Encoding settings                : cabac=1 / ref=5 / deblock=1:-3:-3 / analyse=0x3:0x113 / me=umh / subme=9 / psy_rd=0.8:0.0 / mixed_ref=1 / me_range=24 / chroma_me=1 / trellis=2 / 8x8dct=1 / cqm=0 / deadzone=21,11 / chroma_qp_offset=-2 / threads=6 / nr=0 / decimate=1 / mbaff=0 / bframes=3 / b_pyramid=1 / b_adapt=2 / b_bias=0 / direct=3 / wpredb=1 / keyint=250 / keyint_min=25 / scenecut=40 / rc=2pass / bitrate=15140 / ratetol=1.0 / qcomp=0.60 / qpmin=10 / qpmax=51 / qpstep=4 / cplxblur=20.0 / qblur=0.5 / vbv_maxrate=38000 / vbv_bufsize=38000 / ip_ratio=1.40 / pb_ratio=1.30 / aq=1:0.80
  36. Language                         : German
  37.  
  38. Audio
  39. ID                               : 2
  40. Format                           : DTS
  41. Format/Info                      : Digital Theater Systems
  42. Codec ID                         : A_DTS
  43. Duration                         : 1h 43mn
  44. Bit rate mode                    : Constant
  45. Bit rate                         : 1 510 Kbps
  46. Channel(s)                       : 6 channels
  47. Channel positions                : Front: L C R, Surround: L R, LFE
  48. Sampling rate                    : 48.0 KHz
  49. Resolution                       : 24 bits
  50. Stream size                      : 1.09 GiB (9%)
  51. Title                            : 5.1 DTS @ 1536 kbp/s
  52. Language                         : English
  53.  
  54. Text
  55. ID                               : 3
  56. Format                           : UTF-8
  57. Codec ID                         : S_TEXT/UTF8
  58. Codec ID/Info                    : UTF-8 Plain Text
  59. Language                         : English
  60.  
  61. Menu
  62. 00:00:00.000                     : en:00:00:00.000
  63. 00:08:15.328                     : en:00:08:15.328
  64. 00:17:42.770                     : en:00:17:42.770
  65. 00:25:54.928                     : en:00:25:54.928
  66. 00:31:29.846                     : en:00:31:29.846
  67. 00:40:29.218                     : en:00:40:29.218
  68. 00:47:33.976                     : en:00:47:33.976
  69. 00:50:55.678                     : en:00:50:55.678
  70. 00:58:01.728                     : en:00:58:01.728
  71. 01:05:37.392                     : en:01:05:37.392
  72. 01:11:20.026                     : en:01:11:20.026
  73. 01:19:45.114                     : en:01:19:45.114
  74. 01:29:25.443                     : en:01:29:25.443
  75. 01:36:28.199                     : en:01:36:28.199
clone this paste RAW Paste Data