Want more features on Pastebin? Sign Up, it's FREE!
Guest

Untitled

By: a guest on Apr 10th, 2013  |  syntax: None  |  size: 7.74 KB  |  views: 55  |  expires: Never
download  |  raw  |  embed  |  report abuse  |  print
Text below is selected. Please press Ctrl+C to copy to your clipboard. (⌘+C on Mac)
  1. I get a segfault when trying it with a video  file and an audio file:
  2.  
  3.  
  4. QWidget::insertAction: Attempt to insert null action
  5. QWidget::insertAction: Attempt to insert null action
  6. "/org/freedesktop/UDisks2/drives/SAMSUNG_HD103SJ_S246J9CB127043" : property "Drive" does not exist
  7. "/org/freedesktop/UDisks2/drives/Optiarc_DVD_RW_AD_5260S" : property "Drive" does not exist
  8. Advanced probing on /dev/sr1 failed while reading block size
  9. kdenlive(29542) KSambaSharePrivate::testparmParamValue: We got some errors while running testparm "Load smb config files from /etc/samba/smb.conf
  10. Error loading services.
  11. "
  12. kdenlive(29542) KSambaSharePrivate::findSmbConf: KSambaShare: Could not find smb.conf!
  13. "/org/freedesktop/UDisks2/drives/SAMSUNG_HD103SJ_S246J9CB127043" : property "DeviceNumber" does not exist
  14. "/org/freedesktop/UDisks2/drives/SAMSUNG_HD103SJ_S246J9CB127043" : property "Device" does not exist
  15. "/org/freedesktop/UDisks2/drives/Optiarc_DVD_RW_AD_5260S" : property "DeviceNumber" does not exist
  16. "/org/freedesktop/UDisks2/drives/Optiarc_DVD_RW_AD_5260S" : property "Device" does not exist
  17. [wav @ 0x7f41ac008920] max_analyze_duration 5000000 reached at 5015510 microseconds
  18. [wav @ 0x7f41ac009f60] max_analyze_duration 5000000 reached at 5015510 microseconds
  19. [wav @ 0x7f41ac0d3a40] max_analyze_duration 5000000 reached at 5015510 microseconds
  20. [wav @ 0x7f41ac0d56a0] max_analyze_duration 5000000 reached at 5015510 microseconds
  21. [wav @ 0x3880360] max_analyze_duration 5000000 reached at 5015510 microseconds
  22. [wav @ 0x37c7a80] max_analyze_duration 5000000 reached at 5015510 microseconds
  23. [wav @ 0x37f3260] max_analyze_duration 5000000 reached at 5015510 microseconds
  24. [wav @ 0x37e5920] max_analyze_duration 5000000 reached at 5015510 microseconds
  25. kdenlive(29542)/kio (KDirModel) KDirModelPrivate::_k_slotDeleteItems: No node found for item that was just removed: KUrl("f[...]")
  26. Failed to open VDPAU backend libvdpau_nvidia.so: cannot open shared object file: No such file or directory
  27. Failed to open VDPAU backend libvdpau_nvidia.so: cannot open shared object file: No such file or directory
  28. [swscaler @ 0x7f41a2ce81a0] Warning: data is not aligned! This can lead to a speedloss
  29. Failed to open VDPAU backend libvdpau_nvidia.so: cannot open shared object file: No such file or directory
  30. [wav @ 0x4492800] max_analyze_duration 5000000 reached at 5015510 microseconds
  31. [wav @ 0x3fc0300] max_analyze_duration 5000000 reached at 5015510 microseconds
  32. [wav @ 0x3beb200] max_analyze_duration 5000000 reached at 5015510 microseconds
  33. [wav @ 0x3bfd680] max_analyze_duration 5000000 reached at 5015510 microseconds
  34. [wav @ 0x3fa5540] max_analyze_duration 5000000 reached at 5015510 microseconds
  35. [wav @ 0x3bd2e60] max_analyze_duration 5000000 reached at 5015510 microseconds
  36. Failed to open VDPAU backend libvdpau_nvidia.so: cannot open shared object file: No such file or directory
  37. [wav @ 0x7f416924af60] max_analyze_duration 5000000 reached at 5015510 microseconds
  38. [wav @ 0x7f416851fe80] max_analyze_duration 5000000 reached at 5015510 microseconds
  39. Loading envelope ...
  40. Failed to open VDPAU backend libvdpau_nvidia.so: cannot open shared object file: No such file or directory
  41. Calculating the envelope (93178 frames) took 21210 ms.
  42. [wav @ 0x49aad60] max_analyze_duration 5000000 reached at 5015510 microseconds
  43. [wav @ 0x49ab6e0] max_analyze_duration 5000000 reached at 5015510 microseconds
  44. Loading envelope ...
  45. [wav @ 0x44339a0] max_analyze_duration 5000000 reached at 5015510 microseconds
  46. [wav @ 0x49c8100] max_analyze_duration 5000000 reached at 5015510 microseconds
  47. Calculating the envelope (191787 frames) took 19792 ms.
  48. [1]    29542 segmentation fault (core dumped)  kdenlive
  49.  
  50.  
  51.  
  52. The video file (mediainfo):
  53. General
  54. Complete name                            : [..]
  55. Format                                   : MPEG-4
  56. Format profile                           : JVT
  57. Codec ID                                 : avc1
  58. File size                                : 1.04 GiB
  59. Duration                                 : 18mn 29s
  60. Overall bit rate                         : 8 065 Kbps
  61. Encoded date                             : UTC 2008-01-01 00:52:21
  62. Tagged date                              : UTC 2008-01-01 00:52:21
  63. AMBA                                     : 
  64.  
  65. Video
  66. ID                                       : 1
  67. Format                                   : AVC
  68. Format/Info                              : Advanced Video Codec
  69. Format profile                           : Main@L4.1
  70. Format settings, CABAC                   : Yes
  71. Format settings, ReFrames                : 4 frames
  72. Codec ID                                 : avc1
  73. Codec ID/Info                            : Advanced Video Coding
  74. Duration                                 : 18mn 29s
  75. Bit rate mode                            : Variable
  76. Bit rate                                 : 7 930 Kbps
  77. Width                                    : 1 440 pixels
  78. Height                                   : 1 080 pixels
  79. Display aspect ratio                     : 16:9
  80. Frame rate mode                          : Constant
  81. Frame rate                               : 29.970 fps
  82. Color space                              : YUV
  83. Chroma subsampling                       : 4:2:0
  84. Bit depth                                : 8 bits
  85. Scan type                                : Progressive
  86. Bits/(Pixel*Frame)                       : 0.170
  87. Stream size                              : 1.02 GiB (98%)
  88. Title                                    : Ambarella AVC
  89. Language                                 : English
  90. Encoded date                             : UTC 2008-01-01 00:52:21
  91. Tagged date                              : UTC 2008-01-01 00:52:21
  92. Color primaries                          : BT.709
  93. Transfer characteristics                 : BT.709
  94. Matrix coefficients                      : BT.709
  95.  
  96. Audio
  97. ID                                       : 2
  98. Format                                   : AAC
  99. Format/Info                              : Advanced Audio Codec
  100. Format profile                           : LC
  101. Codec ID                                 : 40
  102. Duration                                 : 18mn 28s
  103. Bit rate mode                            : Constant
  104. Bit rate                                 : 128 Kbps
  105. Channel(s)                               : 2 channels
  106. Channel positions                        : Front: L R
  107. Sampling rate                            : 48.0 KHz
  108. Compression mode                         : Lossy
  109. Stream size                              : 16.9 MiB (2%)
  110. Title                                    : Ambarella AAC
  111. Language                                 : English
  112. Encoded date                             : UTC 2008-01-01 00:52:21
  113. Tagged date                              : UTC 2008-01-01 00:52:21
  114.  
  115.  
  116. The audio file: (mediainfo)
  117. General
  118. Complete name                            : ~
  119. Format                                   : Wave
  120. File size                                : 1.05 GiB
  121. Duration                                 : 1h 46mn
  122. Overall bit rate mode                    : Constant
  123. Overall bit rate                         : 1 411 Kbps
  124. Producer                                 : TASCAM Linear PCM Recoder DR-05
  125. Encoded date                             : 2012-01-16 22:52:39
  126.  
  127. Audio
  128. Format                                   : PCM
  129. Format settings, Endianness              : Little
  130. Format settings, Sign                    : Signed
  131. Codec ID                                 : 1
  132. Duration                                 : 1h 46mn
  133. Bit rate mode                            : Constant
  134. Bit rate                                 : 1 411.2 Kbps
  135. Channel(s)                               : 2 channels
  136. Sampling rate                            : 44.1 KHz
  137. Bit depth                                : 16 bits
  138. Stream size                              : 1.05 GiB (100%)
  139.  
  140.  
  141. running on Arch 64 bit.
clone this paste RAW Paste Data