Pastebin launched a little side project called HostCabi.net, check it out ;-)Don't like ads? PRO users don't see any ads ;-)
Guest

BoondockS-wyild1

By: a guest on Apr 25th, 2010  |  syntax: None  |  size: 4.12 KB  |  hits: 73  |  expires: Never
download  |  raw  |  embed  |  report abuse  |  print
Text below is selected. Please press Ctrl+C to copy to your clipboard. (⌘+C on Mac)
  1. mediainfo The.Boondock.Saints.Unrated.1080p.BluRay.mkv
  2. General
  3. Complete name                    : The.Boondock.Saints.Unrated.1080p.BluRay.mkv
  4. Format                           : Matroska
  5. File size                        : 12.6 GiB
  6. Duration                         : 1h 48mn
  7. Overall bit rate                 : 16.7 Mbps
  8. Encoded date                     : UTC 2010-02-25 13:53:47
  9. Writing application              : mkvmerge v2.9.8 ('C'est le bon') built on Aug 13 2009 12:49:06
  10. Writing library                  : libebml v0.7.7 + libmatroska v0.8.1
  11.  
  12. Video
  13. ID                               : 1
  14. Format                           : AVC
  15. Format/Info                      : Advanced Video Codec
  16. Format profile                   : High@L4.1
  17. Format settings, CABAC           : Yes
  18. Format settings, ReFrames        : 5 frames
  19. Muxing mode                      : Container profile=Unknown@4.1
  20. Codec ID                         : V_MPEG4/ISO/AVC
  21. Duration                         : 1h 48mn
  22. Bit rate                         : 14.7 Mbps
  23. Nominal bit rate                 : 15.0 Mbps
  24. Width                            : 1 916 pixels
  25. Height                           : 814 pixels
  26. Display aspect ratio             : 2.35:1
  27. Frame rate                       : 23.976 fps
  28. Resolution                       : 24 bits
  29. Colorimetry                      : 4:2:0
  30. Scan type                        : Progressive
  31. Bits/(Pixel*Frame)               : 0.392
  32. Stream size                      : 11.1 GiB (88%)
  33. Title                            : 15000 kbps
  34. Writing library                  : x264 core 80 r1376M 3feaec2
  35. Encoding settings                : cabac=1 / ref=5 / deblock=1:-3:-3 / analyse=0x3:0x133 / me=esa / subme=10 / psy=1 / psy_rd=0.8:0.0 / mixed_ref=1 / me_range=48 / chroma_me=1 / trellis=2 / 8x8dct=1 / cqm=0 / deadzone=21,11 / fast_pskip=0 / chroma_qp_offset=-2 / threads=12 / sliced_threads=0 / nr=0 / decimate=0 / mbaff=0 / constrained_intra=0 / bframes=7 / b_pyramid=2 / b_adapt=2 / b_bias=0 / direct=3 / wpredb=1 / wpredp=2 / keyint=250 / keyint_min=25 / scenecut=40 / rc_lookahead=40 / rc=2pass / mbtree=1 / bitrate=15000 / ratetol=1.0 / qcomp=0.60 / qpmin=10 / qpmax=51 / qpstep=4 / cplxblur=20.0 / qblur=0.5 / ip_ratio=1.40 / aq=1:0.80
  36. Language                         : English
  37.  
  38. Audio #1
  39. ID                               : 2
  40. Format                           : DTS
  41. Format/Info                      : Digital Theater Systems
  42. Codec ID                         : A_DTS
  43. Duration                         : 1h 48mn
  44. Bit rate mode                    : Constant
  45. Bit rate                         : 1 510 Kbps
  46. Channel(s)                       : 6 channels
  47. Channel positions                : Front: L C R, Surround: L R, LFE
  48. Sampling rate                    : 48.0 KHz
  49. Resolution                       : 24 bits
  50. Stream size                      : 1.14 GiB (9%)
  51. Title                            : DTS 5.1 @ 1.5 mbps
  52. Language                         : English
  53.  
  54. Audio #2
  55. ID                               : 3
  56. Format                           : Vorbis
  57. Format settings, Floor           : 1
  58. Codec ID                         : A_VORBIS
  59. Duration                         : 1h 48mn
  60. Bit rate                         : 80.0 Kbps
  61. Channel(s)                       : 2 channels
  62. Sampling rate                    : 44.1 KHz
  63. Resolution                       : 16 bits
  64. Stream size                      : 62.1 MiB (0%)
  65. Title                            : Commentary 1#
  66. Writing library                  : libVorbis 20090709 (UTC 2009-07-09)
  67. Language                         : English
  68.  
  69. Audio #3
  70. ID                               : 4
  71. Format                           : Vorbis
  72. Format settings, Floor           : 1
  73. Codec ID                         : A_VORBIS
  74. Duration                         : 1h 48mn
  75. Bit rate                         : 80.0 Kbps
  76. Channel(s)                       : 2 channels
  77. Sampling rate                    : 44.1 KHz
  78. Resolution                       : 16 bits
  79. Stream size                      : 62.1 MiB (0%)
  80. Title                            : Commentary 2#
  81. Writing library                  : libVorbis 20090709 (UTC 2009-07-09)
  82. Language                         : English