Pastebin is 300% more awesome when you are logged in. Sign Up, it's FREE!

Shemale - Vivian Porto - TSDolls

By: Shambax on May 7th, 2012  |  syntax: None  |  size: 2.34 KB  |  hits: 397  |  expires: Never
download  |  raw  |  embed  |  report abuse  |  print
Text below is selected. Please press Ctrl+C to copy to your clipboard. (⌘+C on Mac)
  1.                                                 Vivian Porto - TSDolls
  2. General
  3. Complete name                    : D:\Vivian Porto - TSDolls Video 001-Full.wmv
  4. Format                           : Windows Media
  5. File size                        : 355 MiB
  6. Duration                         : 14mn 40s
  7. Overall bit rate mode            : Constant
  8. Overall bit rate                 : 3 383 Kbps
  9. Maximum Overall bit rate         : 3 418 Kbps
  10. Encoded date                     : UTC 2009-05-26 01:42:49.800
  11.  
  12. Video
  13. ID                               : 2
  14. Format                           : VC-1
  15. Format profile                   : MP@HL
  16. Codec ID                         : WMV3
  17. Codec ID/Info                    : Windows Media Video 9
  18. Codec ID/Hint                    : WMV3
  19. Description of the codec         : Windows Media Video 9 - Professional
  20. Duration                         : 14mn 39s
  21. Bit rate mode                    : Constant
  22. Bit rate                         : 3 200 Kbps
  23. Width                            : 960 pixels
  24. Height                           : 540 pixels
  25. Display aspect ratio             : 16:9
  26. Frame rate                       : 29.970 fps
  27. Resolution                       : 24 bits
  28. Scan type                        : Progressive
  29. Bits/(Pixel*Frame)               : 0.206
  30. Stream size                      : 335 MiB (94%)
  31. NumberOfFrames                   : 26288
  32.  
  33. Audio
  34. ID                               : 1
  35. Format                           : WMA
  36. Format version                   : Version 2
  37. Codec ID                         : 161
  38. Codec ID/Info                    : Windows Media Audio
  39. Description of the codec         : Windows Media Audio 9.1 - 192 kbps, 44 kHz, stereo 1-pass CBR
  40. Duration                         : 14mn 40s
  41. Bit rate mode                    : Constant
  42. Bit rate                         : 192 Kbps
  43. Channel(s)                       : 2 channels
  44. Sampling rate                    : 44.1 KHz
  45. Resolution                       : 16 bits
  46. Stream size                      : 20.1 MiB (6%)
  47.  
  48.                                                 Previa
  49.                 http://imgchili.com/show/7460/7460568_vivian_porto___tsdol.jpg
  50.  
  51.                                             LINKS HOTFILE
  52.                                                SIN PASS
  53.  
  54.                 http://hotfile.com/dl/166206385/9035c14/VPort-001.part1.rar.html
  55.                 http://hotfile.com/dl/166210507/ec9bbfd/VPort-001.part2.rar.html
  56.                 http://hotfile.com/dl/166214091/611474c/VPort-001.part3.rar.html
  57.                 http://hotfile.com/dl/166216074/169ea74/VPort-001.part4.rar.html