Pastebin launched a little side project called HostCabi.net, check it out ;-)Don't like ads? PRO users don't see any ads ;-)
Guest

Untitled

By: a guest on Aug 28th, 2013  |  syntax: None  |  size: 86.61 KB  |  hits: 5  |  expires: Never
download  |  raw  |  embed  |  report abuse  |  print
Text below is selected. Please press Ctrl+C to copy to your clipboard. (⌘+C on Mac)
  1. INFO  2013-08-28 03:53:33.271 [main] Starting PS3 Media Server 1.80.0
  2. INFO  2013-08-28 03:53:33.376 [main] by shagrath / 2008-2012
  3. INFO  2013-08-28 03:53:33.392 [main] http://ps3mediaserver.org
  4. INFO  2013-08-28 03:53:33.401 [main] https://github.com/ps3mediaserver/ps3mediaserver
  5. INFO  2013-08-28 03:53:33.403 [main]
  6. INFO  2013-08-28 03:53:33.404 [main] Build: 53d9c67ca (2013-04-06)
  7. INFO  2013-08-28 03:53:33.410 [main] Java: 1.7.0_25-Oracle Corporation
  8. INFO  2013-08-28 03:53:33.416 [main] OS: Windows 7 x86 6.1
  9. INFO  2013-08-28 03:53:33.427 [main] Encoding: UTF-8
  10. INFO  2013-08-28 03:53:33.435 [main] Memory: 742 MB
  11. INFO  2013-08-28 03:53:33.436 [main]
  12. INFO  2013-08-28 03:53:33.436 [main] Working directory: C:\Program Files (x86)\PS3 Media Server
  13. INFO  2013-08-28 03:53:33.591 [main] Temp directory: C:\Users\User\AppData\Local\Temp\ps3mediaserver
  14. INFO  2013-08-28 03:53:33.595 [main] Logging config file: C:\Program Files (x86)\PS3 Media Server\logback.xml
  15. INFO  2013-08-28 03:53:33.597 [main] debug.log: C:\Program Files (x86)\PS3 Media Server\debug.log
  16. INFO  2013-08-28 03:53:33.598 [main]
  17. INFO  2013-08-28 03:53:33.598 [main] Profile directory: C:\ProgramData\PMS
  18. INFO  2013-08-28 03:53:33.599 [main] Profile path: C:\ProgramData\PMS\PMS.conf
  19. INFO  2013-08-28 03:53:33.600 [main] Profile permissions: rw
  20. INFO  2013-08-28 03:53:33.601 [main] Profile name: Thoth
  21. INFO  2013-08-28 03:53:33.601 [main]
  22. INFO  2013-08-28 03:53:33.608 [main] Loading MediaInfo library
  23. INFO  2013-08-28 03:53:33.807 [main] Loaded MediaInfoLib - v0.7.62
  24. INFO  2013-08-28 03:53:33.819 [main] Loading renderer configurations from C:\Program Files (x86)\PS3 Media Server\renderers
  25. INFO  2013-08-28 03:53:33.820 [main] Loading configuration file: AirPlayer.conf
  26. INFO  2013-08-28 03:53:33.825 [main] Loading configuration file: Android.conf
  27. INFO  2013-08-28 03:53:33.828 [main] Loading configuration file: BlackBerryPlayBook-KalemSoftMP.conf
  28. INFO  2013-08-28 03:53:33.842 [main] Loading configuration file: Bravia4500.conf
  29. INFO  2013-08-28 03:53:33.846 [main] Loading configuration file: Bravia5500.conf
  30. INFO  2013-08-28 03:53:33.849 [main] Loading configuration file: BraviaEX.conf
  31. INFO  2013-08-28 03:53:33.869 [main] Loading configuration file: BraviaEX620.conf
  32. INFO  2013-08-28 03:53:33.872 [main] Loading configuration file: BraviaHX.conf
  33. INFO  2013-08-28 03:53:33.876 [main] Loading configuration file: BraviaW.conf
  34. INFO  2013-08-28 03:53:33.881 [main] Loading configuration file: DirecTVHR.conf
  35. INFO  2013-08-28 03:53:33.891 [main] Loading configuration file: DLinkDSM510.conf
  36. INFO  2013-08-28 03:53:33.893 [main] Loading configuration file: FreeboxHD.conf
  37. INFO  2013-08-28 03:53:33.898 [main] Loading configuration file: FreecomMusicPal.conf
  38. INFO  2013-08-28 03:53:33.901 [main] Loading configuration file: iPad-iPhone.conf
  39. INFO  2013-08-28 03:53:33.903 [main] Loading configuration file: Kuro.conf
  40. INFO  2013-08-28 03:53:33.905 [main] Loading configuration file: LGST600.conf
  41. INFO  2013-08-28 03:53:33.909 [main] Loading configuration file: N900.conf
  42. INFO  2013-08-28 03:53:33.913 [main] Loading configuration file: NetgearNeoTV.conf
  43. INFO  2013-08-28 03:53:33.915 [main] Loading configuration file: OnkyoTX-NR717.conf
  44. INFO  2013-08-28 03:53:33.916 [main] Loading configuration file: OPPOBDP83.conf
  45. INFO  2013-08-28 03:53:33.921 [main] Loading configuration file: OPPOBDP93.conf
  46. INFO  2013-08-28 03:53:33.925 [main] Loading configuration file: Panasonic.conf
  47. INFO  2013-08-28 03:53:33.930 [main] Loading configuration file: Philips.conf
  48. INFO  2013-08-28 03:53:33.935 [main] Loading configuration file: PhilipsPFL.conf
  49. INFO  2013-08-28 03:53:33.943 [main] Loading configuration file: PopcornHour.conf
  50. INFO  2013-08-28 03:53:33.947 [main] Loading configuration file: PS3.conf
  51. INFO  2013-08-28 03:53:33.952 [main] Loading configuration file: Realtek.conf
  52. INFO  2013-08-28 03:53:33.954 [main] Loading configuration file: Samsung-SMT-G7400.conf
  53. INFO  2013-08-28 03:53:33.957 [main] Loading configuration file: SamsungAllShare.conf
  54. INFO  2013-08-28 03:53:33.959 [main] Loading configuration file: SamsungWiseLink.conf
  55. INFO  2013-08-28 03:53:33.961 [main] Loading configuration file: SharpAquos.conf
  56. INFO  2013-08-28 03:53:33.968 [main] Loading configuration file: Showtime3.conf
  57. INFO  2013-08-28 03:53:33.971 [main] Loading configuration file: Showtime4.conf
  58. INFO  2013-08-28 03:53:33.973 [main] Loading configuration file: SMP-N100.conf
  59. INFO  2013-08-28 03:53:33.976 [main] Loading configuration file: SonyBluray.conf
  60. INFO  2013-08-28 03:53:33.982 [main] Loading configuration file: SonyHomeTheatreSystem.conf
  61. INFO  2013-08-28 03:53:33.987 [main] Loading configuration file: Streamium.conf
  62. INFO  2013-08-28 03:53:33.990 [main] Loading configuration file: TelstraTbox.conf
  63. INFO  2013-08-28 03:53:33.991 [main] Loading configuration file: VideoWebTV.conf
  64. INFO  2013-08-28 03:53:33.993 [main] Loading configuration file: VizioSmartTV.conf
  65. INFO  2013-08-28 03:53:34.000 [main] Loading configuration file: WDTVLive.conf
  66. INFO  2013-08-28 03:53:34.002 [main] Loading configuration file: WMP.conf
  67. INFO  2013-08-28 03:53:34.003 [main] Loading configuration file: XBMC.conf
  68. INFO  2013-08-28 03:53:34.005 [main] Loading configuration file: XBOX360.conf
  69. INFO  2013-08-28 03:53:34.007 [main] Loading configuration file: YamahaRXA1010.conf
  70. INFO  2013-08-28 03:53:34.009 [main] Loading configuration file: YamahaRXV3900.conf
  71. INFO  2013-08-28 03:53:34.010 [main] Loading configuration file: YamahaRXV671.conf
  72. INFO  2013-08-28 03:53:34.014 [main] Checking MPlayer font cache. It can take a minute or so.
  73. DEBUG 2013-08-28 03:53:34.016 [main] launching: win32/mplayer.exe
  74. DEBUG 2013-08-28 03:53:34.189 [main] launching: win32/mplayer.exe
  75. INFO  2013-08-28 03:53:34.428 [main] Done!
  76. INFO  2013-08-28 03:53:34.435 [main] Searching for plugins in C:\Program Files (x86)\PS3 Media Server\plugins
  77. INFO  2013-08-28 03:53:34.437 [main] No plugins found
  78. INFO  2013-08-28 03:53:34.454 [main] Transcoder profile AviSynth/FFmpeg will not be used because AviSynth was not found
  79. INFO  2013-08-28 03:53:34.455 [main] Registering transcoding engine: FFmpeg Audio
  80. INFO  2013-08-28 03:53:34.461 [main] Registering transcoding engine: MEncoder
  81. INFO  2013-08-28 03:53:34.475 [main] Transcoder profile AviSynth/MEncoder will not be used because AviSynth was not found
  82. INFO  2013-08-28 03:53:34.476 [main] Registering transcoding engine: FFmpeg
  83. INFO  2013-08-28 03:53:34.479 [main] Executable of transcoder profile VLC not found
  84. INFO  2013-08-28 03:53:34.480 [main] Registering transcoding engine: MPlayer Audio
  85. INFO  2013-08-28 03:53:34.482 [main] Registering transcoding engine: FFmpeg Web Video
  86. INFO  2013-08-28 03:53:34.483 [main] Registering transcoding engine: MEncoder Web
  87. INFO  2013-08-28 03:53:34.485 [main] Registering transcoding engine: MPlayer Video Dump
  88. INFO  2013-08-28 03:53:34.487 [main] Registering transcoding engine: MPlayer Web
  89. INFO  2013-08-28 03:53:34.490 [main] Registering transcoding engine: tsMuxeR
  90. INFO  2013-08-28 03:53:34.491 [main] Registering transcoding engine: Audio High Fidelity
  91. INFO  2013-08-28 03:53:34.491 [main] Executable of transcoder profile VLC Audio Streaming not found
  92. INFO  2013-08-28 03:53:34.492 [main] Executable of transcoder profile VLC Video Streaming not found
  93. INFO  2013-08-28 03:53:34.493 [main] Registering transcoding engine: FFmpeg DVR-MS Remux
  94. INFO  2013-08-28 03:53:34.494 [main] Registering transcoding engine: dcraw Thumbnailer
  95. INFO  2013-08-28 03:53:34.738 [main] Using address /192.168.254.7 found on network interface: name:eth3 (Realtek RTL8168C(P)/8111C(P) Family PCI-E Gigabit Ethernet NIC (NDIS 6.20))
  96. INFO  2013-08-28 03:53:34.739 [main] Created socket: /192.168.254.7:5001
  97. DEBUG 2013-08-28 03:53:40.613 [main] Sending ALIVE...
  98. INFO  2013-08-28 03:53:40.665 [main] Using the following UUID configured in PMS.conf: 0ead3711-f0de-4dcf-9651-4ccc343b0a41
  99. INFO  2013-08-28 03:53:40.920 [main] The server should now appear on your renderer
  100. INFO  2013-08-28 03:53:42.696 [New I/O server worker #1-1] No IP filter specified, access granted to /192.168.254.3
  101. INFO  2013-08-28 03:53:42.711 [pool-7-thread-1] Checking IP: 192.168.254.3 for Playstation 3
  102. INFO  2013-08-28 03:53:47.325 [pool-7-thread-1] Renderer Playstation 3 found on this address: 192.168.254.3
  103. DEBUG 2013-08-28 03:53:47.338 [pool-7-thread-1] Starting ping -n 3 -l 64000 192.168.254.3
  104. DEBUG 2013-08-28 03:53:47.489 [Thread-12]
  105. DEBUG 2013-08-28 03:53:47.489 [Thread-12] Pinging 192.168.254.3 with 64000 bytes of data:
  106. DEBUG 2013-08-28 03:53:47.493 [Thread-12] Reply from 192.168.254.3: bytes=64000 time=2ms TTL=255
  107. DEBUG 2013-08-28 03:53:48.493 [Thread-12] Reply from 192.168.254.3: bytes=64000 time=2ms TTL=255
  108. DEBUG 2013-08-28 03:53:49.340 [SpeedStats Failsafe] Stopping process: ping-0
  109. INFO  2013-08-28 03:53:49.346 [pool-7-thread-1] Address /192.168.254.3 has an estimated network speed of: 512 Mb/s
  110. DEBUG 2013-08-28 03:53:50.931 [UPNP-AliveMessageSender] Sending ALIVE...
  111. DEBUG 2013-08-28 03:53:58.119 [New I/O server worker #1-4] Forcing short path name on G:\Movies\Amelie.from.Montmartre.2001.BluRay.1080p.DTS.x264.dxva-wsp®
  112. DEBUG 2013-08-28 03:53:59.287 [New I/O server worker #1-3] Forcing short path name on G:\Movies\Family.Guy.It´s.A.Trap!.2010.BluRay.1080p.DTSMA.5.1.x264.dxva-FraMeSToR
  113. DEBUG 2013-08-28 03:54:09.508 [New I/O server worker #1-4] No encoding detected for G:\Movies\Star.Wars.Episode.VI.Return.Of.The.Jedi.1983.1080p.BluRay.DTS.x264.D-Z0N3\Star.Wars.Episode.6.Return.Of.The.Jedi.1983.1080p.BluRay.DTS.x264.D-Z0N3.MediaInfo.txt.
  114. DEBUG 2013-08-28 03:54:09.594 [New I/O server worker #1-4] No encoding detected for G:\Movies\Star.Wars.Episode.VI.Return.Of.The.Jedi.1983.1080p.BluRay.DTS.x264.D-Z0N3\Star.Wars.Episode.6.Return.Of.The.Jedi.1983.1080p.BluRay.DTS.x264.D-Z0N3.MediaInfo.txt.
  115. WARN  2013-08-28 03:54:10.068 [New I/O server worker #1-2] Can't create thumbnail for G:\Movies\Star.Wars.Episode.VI.Return.Of.The.Jedi.1983.1080p.BluRay.DTS.x264.D-Z0N3\Star.Wars.Episode.6.Return.Of.The.Jedi.1983.1080p.BluRay.DTS.x264.D-Z0N3.mkv: No suitable ImageReader found for G:\Movies\Star.Wars.Episode.VI.Return.Of.The.Jedi.1983.1080p.BluRay.DTS.x264.D-Z0N3\Star.Wars.Episode.6.Return.Of.The.Jedi.1983.1080p.BluRay.DTS.x264.D-Z0N3.mkv.
  116. DEBUG 2013-08-28 03:54:10.072 [New I/O server worker #1-2] Starting "C:\Program Files (x86)\PS3 Media Server\win32\ffmpeg.exe" -ss 30 -i G:\Movies\Star.Wars.Episode.VI.Return.Of.The.Jedi.1983.1080p.BluRay.DTS.x264.D-Z0N3\Star.Wars.Episode.6.Return.Of.The.Jedi.1983.1080p.BluRay.DTS.x264.D-Z0N3.mkv -an -an -s 320x180 -vframes 1 -f image2 pipe:
  117. DEBUG 2013-08-28 03:54:10.082 [New I/O server worker #1-2] Attaching thread: ffmpeg.exe-1
  118. DEBUG 2013-08-28 03:54:10.112 [Thread-14] ffmpeg version N-45279-g1a104bf Copyright (c) 2000-2012 the FFmpeg developers
  119. DEBUG 2013-08-28 03:54:10.113 [Thread-14]   built on Oct 10 2012 19:19:16 with gcc 4.7.2 (GCC)
  120. DEBUG 2013-08-28 03:54:10.113 [Thread-14]   configuration: --enable-gpl --enable-version3 --disable-pthreads --enable-runtime-cpudetect --enable-avisynth --enable-bzlib --enable-frei0r --enable-libass --enable-libcelt --enable-libopencore-amrnb --enable-libopencore-amrwb --enable-libfreetype --enable-libgsm --enable-libmp3lame --enable-libnut --enable-libopenjpeg --enable-librtmp --enable-libschroedinger --enable-libspeex --enable-libtheora --enable-libutvideo --enable-libvo-aacenc --enable-libvo-amrwbenc --enable-libvorbis --enable-libvpx --enable-libx264 --enable-libxavs --enable-libxvid --enable-zlib
  121. DEBUG 2013-08-28 03:54:10.113 [Thread-14]   libavutil      51. 74.100 / 51. 74.100
  122. DEBUG 2013-08-28 03:54:10.113 [Thread-14]   libavcodec     54. 65.100 / 54. 65.100
  123. DEBUG 2013-08-28 03:54:10.113 [Thread-14]   libavformat    54. 31.100 / 54. 31.100
  124. DEBUG 2013-08-28 03:54:10.113 [Thread-14]   libavdevice    54.  3.100 / 54.  3.100
  125. DEBUG 2013-08-28 03:54:10.113 [Thread-14]   libavfilter     3. 19.102 /  3. 19.102
  126. DEBUG 2013-08-28 03:54:10.113 [Thread-14]   libswscale      2.  1.101 /  2.  1.101
  127. DEBUG 2013-08-28 03:54:10.113 [Thread-14]   libswresample   0. 16.100 /  0. 16.100
  128. DEBUG 2013-08-28 03:54:10.113 [Thread-14]   libpostproc    52.  1.100 / 52.  1.100
  129. DEBUG 2013-08-28 03:54:10.181 [Thread-14] [dca @ 03aff6e0] Number of channels changed in DCA decoder (6 -> 7)
  130. DEBUG 2013-08-28 03:54:10.187 [Thread-14] Input #0, matroska,webm, from 'G:\Movies\Star.Wars.Episode.VI.Return.Of.The.Jedi.1983.1080p.BluRay.DTS.x264.D-Z0N3\Star.Wars.Episode.6.Return.Of.The.Jedi.1983.1080p.BluRay.DTS.x264.D-Z0N3.mkv':
  131. DEBUG 2013-08-28 03:54:10.187 [Thread-14]   Metadata:
  132. DEBUG 2013-08-28 03:54:10.187 [Thread-14]     creation_time   : 2011-09-10 00:43:48
  133. DEBUG 2013-08-28 03:54:10.187 [Thread-14]   Duration: 02:14:47.38, start: 0.000000, bitrate: 18289 kb/s
  134. DEBUG 2013-08-28 03:54:10.187 [Thread-14]     Chapter #0.0: start 0.000000, end 21.188000
  135. DEBUG 2013-08-28 03:54:10.187 [Thread-14]     Metadata:
  136. DEBUG 2013-08-28 03:54:10.188 [Thread-14]       title           : Opening Logos
  137. DEBUG 2013-08-28 03:54:10.188 [Thread-14]     Chapter #0.1: start 21.188000, end 115.115000
  138. DEBUG 2013-08-28 03:54:10.188 [Thread-14]     Metadata:
  139. DEBUG 2013-08-28 03:54:10.188 [Thread-14]       title           : Return of the Jedi
  140. DEBUG 2013-08-28 03:54:10.188 [Thread-14]     Chapter #0.2: start 115.115000, end 298.465000
  141. DEBUG 2013-08-28 03:54:10.188 [Thread-14]     Metadata:
  142. DEBUG 2013-08-28 03:54:10.188 [Thread-14]       title           : Vader's Unexpected Visit
  143. DEBUG 2013-08-28 03:54:10.188 [Thread-14]     Chapter #0.3: start 298.465000, end 490.907000
  144. DEBUG 2013-08-28 03:54:10.188 [Thread-14]     Metadata:
  145. DEBUG 2013-08-28 03:54:10.189 [Thread-14]       title           : Arrival at Jabba's Palace
  146. DEBUG 2013-08-28 03:54:10.189 [Thread-14]     Chapter #0.4: start 490.907000, end 741.908000
  147. DEBUG 2013-08-28 03:54:10.189 [Thread-14]     Metadata:
  148. DEBUG 2013-08-28 03:54:10.189 [Thread-14]       title           : A Message and a Gift
  149. DEBUG 2013-08-28 03:54:10.189 [Thread-14]     Chapter #0.5: start 741.908000, end 862.028000
  150. DEBUG 2013-08-28 03:54:10.189 [Thread-14]     Metadata:
  151. DEBUG 2013-08-28 03:54:10.190 [Thread-14]       title           : The Max Rebo Band
  152. DEBUG 2013-08-28 03:54:10.191 [Thread-14]     Chapter #0.6: start 862.028000, end 1056.013000
  153. DEBUG 2013-08-28 03:54:10.191 [Thread-14]     Metadata:
  154. DEBUG 2013-08-28 03:54:10.191 [Thread-14]       title           : The Price for Chewbacca
  155. DEBUG 2013-08-28 03:54:10.191 [Thread-14]     Chapter #0.7: start 1056.013000, end 1330.037000
  156. DEBUG 2013-08-28 03:54:10.191 [Thread-14]     Metadata:
  157. DEBUG 2013-08-28 03:54:10.191 [Thread-14]       title           : Free From the Carbonite
  158. DEBUG 2013-08-28 03:54:10.191 [Thread-14]     Chapter #0.8: start 1330.037000, end 1508.340000
  159. DEBUG 2013-08-28 03:54:10.191 [Thread-14]     Metadata:
  160. DEBUG 2013-08-28 03:54:10.191 [Thread-14]       title           : Enter the Jedi
  161. DEBUG 2013-08-28 03:54:10.191 [Thread-14]     Chapter #0.9: start 1508.340000, end 1777.359000
  162. DEBUG 2013-08-28 03:54:10.191 [Thread-14]     Metadata:
  163. DEBUG 2013-08-28 03:54:10.192 [Thread-14]       title           : "Oh No! the Rancor"
  164. DEBUG 2013-08-28 03:54:10.192 [Thread-14]     Chapter #0.10: start 1777.359000, end 1889.012000
  165. DEBUG 2013-08-28 03:54:10.192 [Thread-14]     Metadata:
  166. DEBUG 2013-08-28 03:54:10.192 [Thread-14]       title           : On the Sail Barge
  167. DEBUG 2013-08-28 03:54:10.192 [Thread-14]     Chapter #0.11: start 1889.012000, end 2264.471000
  168. DEBUG 2013-08-28 03:54:10.192 [Thread-14]     Metadata:
  169. DEBUG 2013-08-28 03:54:10.192 [Thread-14]       title           : The Sarlacc Pit
  170. DEBUG 2013-08-28 03:54:10.192 [Thread-14]     Chapter #0.12: start 2264.471000, end 2372.245000
  171. DEBUG 2013-08-28 03:54:10.192 [Thread-14]     Metadata:
  172. DEBUG 2013-08-28 03:54:10.192 [Thread-14]       title           : The Emperor Arrives
  173. DEBUG 2013-08-28 03:54:10.192 [Thread-14]     Chapter #0.13: start 2372.245000, end 2717.423000
  174. DEBUG 2013-08-28 03:54:10.192 [Thread-14]     Metadata:
  175. DEBUG 2013-08-28 03:54:10.192 [Thread-14]       title           : Yoda's Twilight
  176. DEBUG 2013-08-28 03:54:10.192 [Thread-14]     Chapter #0.14: start 2717.423000, end 2903.400000
  177. DEBUG 2013-08-28 03:54:10.193 [Thread-14]     Metadata:
  178. DEBUG 2013-08-28 03:54:10.193 [Thread-14]       title           : A Certain Point of View
  179. DEBUG 2013-08-28 03:54:10.193 [Thread-14]     Chapter #0.15: start 2903.400000, end 3096.010000
  180. DEBUG 2013-08-28 03:54:10.193 [Thread-14]     Metadata:
  181. DEBUG 2013-08-28 03:54:10.193 [Thread-14]       title           : Rebel Briefing
  182. DEBUG 2013-08-28 03:54:10.193 [Thread-14]     Chapter #0.16: start 3096.010000, end 3212.668000
  183. DEBUG 2013-08-28 03:54:10.193 [Thread-14]     Metadata:
  184. DEBUG 2013-08-28 03:54:10.193 [Thread-14]       title           : Lending the Falcon
  185. DEBUG 2013-08-28 03:54:10.194 [Thread-14]     Chapter #0.17: start 3212.668000, end 3265.095000
  186. DEBUG 2013-08-28 03:54:10.194 [Thread-14]     Metadata:
  187. DEBUG 2013-08-28 03:54:10.194 [Thread-14]       title           : The Emperor's Instructions
  188. DEBUG 2013-08-28 03:54:10.194 [Thread-14]     Chapter #0.18: start 3265.095000, end 3415.245000
  189. DEBUG 2013-08-28 03:54:10.194 [Thread-14]     Metadata:
  190. DEBUG 2013-08-28 03:54:10.194 [Thread-14]       title           : Flying Casual
  191. DEBUG 2013-08-28 03:54:10.195 [Thread-14]     Chapter #0.19: start 3415.245000, end 3523.812000
  192. DEBUG 2013-08-28 03:54:10.195 [Thread-14]     Metadata:
  193. DEBUG 2013-08-28 03:54:10.195 [Thread-14]       title           : Arrival on Endor
  194. DEBUG 2013-08-28 03:54:10.195 [Thread-14]     Chapter #0.20: start 3523.812000, end 3761.716000
  195. DEBUG 2013-08-28 03:54:10.195 [Thread-14]     Metadata:
  196. DEBUG 2013-08-28 03:54:10.195 [Thread-14]       title           : Speeder Bike Chase
  197. DEBUG 2013-08-28 03:54:10.196 [Thread-14]     Chapter #0.21: start 3761.716000, end 3979.267000
  198. DEBUG 2013-08-28 03:54:10.196 [Thread-14]     Metadata:
  199. DEBUG 2013-08-28 03:54:10.196 [Thread-14]       title           : Leia Meets Wicket
  200. DEBUG 2013-08-28 03:54:10.196 [Thread-14]     Chapter #0.22: start 3979.267000, end 4067.480000
  201. DEBUG 2013-08-28 03:54:10.196 [Thread-14]     Metadata:
  202. DEBUG 2013-08-28 03:54:10.197 [Thread-14]       title           : Vader's Report
  203. DEBUG 2013-08-28 03:54:10.197 [Thread-14]     Chapter #0.23: start 4067.480000, end 4321.108000
  204. DEBUG 2013-08-28 03:54:10.197 [Thread-14]     Metadata:
  205. DEBUG 2013-08-28 03:54:10.197 [Thread-14]       title           : An Ewok Trap
  206. DEBUG 2013-08-28 03:54:10.197 [Thread-14]     Chapter #0.24: start 4321.108000, end 4552.673000
  207. DEBUG 2013-08-28 03:54:10.197 [Thread-14]     Metadata:
  208. DEBUG 2013-08-28 03:54:10.197 [Thread-14]       title           : The Golden God
  209. DEBUG 2013-08-28 03:54:10.197 [Thread-14]     Chapter #0.25: start 4552.673000, end 4694.815000
  210. DEBUG 2013-08-28 03:54:10.198 [Thread-14]     Metadata:
  211. DEBUG 2013-08-28 03:54:10.198 [Thread-14]       title           : Campfire Stories
  212. DEBUG 2013-08-28 03:54:10.198 [Thread-14]     Chapter #0.26: start 4694.815000, end 4950.404000
  213. DEBUG 2013-08-28 03:54:10.198 [Thread-14]     Metadata:
  214. DEBUG 2013-08-28 03:54:10.198 [Thread-14]       title           : Brother and Sister
  215. DEBUG 2013-08-28 03:54:10.198 [Thread-14]     Chapter #0.27: start 4950.404000, end 5166.870000
  216. DEBUG 2013-08-28 03:54:10.198 [Thread-14]     Metadata:
  217. DEBUG 2013-08-28 03:54:10.198 [Thread-14]       title           : Luke Surrenders
  218. DEBUG 2013-08-28 03:54:10.198 [Thread-14]     Chapter #0.28: start 5166.870000, end 5212.082000
  219. DEBUG 2013-08-28 03:54:10.199 [Thread-14]     Metadata:
  220. DEBUG 2013-08-28 03:54:10.199 [Thread-14]       title           : Rebel Recon
  221. DEBUG 2013-08-28 03:54:10.199 [Thread-14]     Chapter #0.29: start 5212.082000, end 5270.891000
  222. DEBUG 2013-08-28 03:54:10.199 [Thread-14]     Metadata:
  223. DEBUG 2013-08-28 03:54:10.200 [Thread-14]       title           : The Alliance Fleet
  224. DEBUG 2013-08-28 03:54:10.200 [Thread-14]     Chapter #0.30: start 5270.891000, end 5404.524000
  225. DEBUG 2013-08-28 03:54:10.200 [Thread-14]     Metadata:
  226. DEBUG 2013-08-28 03:54:10.200 [Thread-14]       title           : Back Door
  227. DEBUG 2013-08-28 03:54:10.200 [Thread-14]     Chapter #0.31: start 5404.524000, end 5599.135000
  228. DEBUG 2013-08-28 03:54:10.200 [Thread-14]     Metadata:
  229. DEBUG 2013-08-28 03:54:10.200 [Thread-14]       title           : Luke and the Emperor
  230. DEBUG 2013-08-28 03:54:10.200 [Thread-14]     Chapter #0.32: start 5599.135000, end 5801.421000
  231. DEBUG 2013-08-28 03:54:10.200 [Thread-14]     Metadata:
  232. DEBUG 2013-08-28 03:54:10.200 [Thread-14]       title           : "It's A Trap!"
  233. DEBUG 2013-08-28 03:54:10.200 [Thread-14]     Chapter #0.33: start 5801.421000, end 6025.186000
  234. DEBUG 2013-08-28 03:54:10.200 [Thread-14]     Metadata:
  235. DEBUG 2013-08-28 03:54:10.201 [Thread-14]       title           : Ewok Attack
  236. DEBUG 2013-08-28 03:54:10.201 [Thread-14]     Chapter #0.34: start 6025.186000, end 6143.179000
  237. DEBUG 2013-08-28 03:54:10.201 [Thread-14]     Metadata:
  238. DEBUG 2013-08-28 03:54:10.201 [Thread-14]       title           : Fully Operational
  239. DEBUG 2013-08-28 03:54:10.201 [Thread-14]     Chapter #0.35: start 6143.179000, end 6267.803000
  240. DEBUG 2013-08-28 03:54:10.201 [Thread-14]     Metadata:
  241. DEBUG 2013-08-28 03:54:10.201 [Thread-14]       title           : The Battle Rages
  242. DEBUG 2013-08-28 03:54:10.202 [Thread-14]     Chapter #0.36: start 6267.803000, end 6326.946000
  243. DEBUG 2013-08-28 03:54:10.202 [Thread-14]     Metadata:
  244. DEBUG 2013-08-28 03:54:10.202 [Thread-14]       title           : The Dark Side Beckons
  245. DEBUG 2013-08-28 03:54:10.202 [Thread-14]     Chapter #0.37: start 6326.946000, end 6522.433000
  246. DEBUG 2013-08-28 03:54:10.202 [Thread-14]     Metadata:
  247. DEBUG 2013-08-28 03:54:10.202 [Thread-14]       title           : The Ewoks Turn the Tide
  248. DEBUG 2013-08-28 03:54:10.202 [Thread-14]     Chapter #0.38: start 6522.433000, end 6640.634000
  249. DEBUG 2013-08-28 03:54:10.202 [Thread-14]     Metadata:
  250. DEBUG 2013-08-28 03:54:10.203 [Thread-14]       title           : Father vs Son
  251. DEBUG 2013-08-28 03:54:10.203 [Thread-14]     Chapter #0.39: start 6640.634000, end 6697.107000
  252. DEBUG 2013-08-28 03:54:10.203 [Thread-14]     Metadata:
  253. DEBUG 2013-08-28 03:54:10.203 [Thread-14]       title           : Taking the Bunker
  254. DEBUG 2013-08-28 03:54:10.203 [Thread-14]     Chapter #0.40: start 6697.107000, end 6877.120000
  255. DEBUG 2013-08-28 03:54:10.204 [Thread-14]     Metadata:
  256. DEBUG 2013-08-28 03:54:10.204 [Thread-14]       title           : A Jedi's Fury
  257. DEBUG 2013-08-28 03:54:10.204 [Thread-14]     Chapter #0.41: start 6877.120000, end 6907.859000
  258. DEBUG 2013-08-28 03:54:10.204 [Thread-14]     Metadata:
  259. DEBUG 2013-08-28 03:54:10.204 [Thread-14]       title           : The Shield Is Down
  260. DEBUG 2013-08-28 03:54:10.204 [Thread-14]     Chapter #0.42: start 6907.859000, end 6957.492000
  261. DEBUG 2013-08-28 03:54:10.204 [Thread-14]     Metadata:
  262. DEBUG 2013-08-28 03:54:10.204 [Thread-14]       title           : Force Lightning
  263. DEBUG 2013-08-28 03:54:10.205 [Thread-14]     Chapter #0.43: start 6957.492000, end 7060.178000
  264. DEBUG 2013-08-28 03:54:10.205 [Thread-14]     Metadata:
  265. DEBUG 2013-08-28 03:54:10.205 [Thread-14]       title           : Vader's Redemption
  266. DEBUG 2013-08-28 03:54:10.205 [Thread-14]     Chapter #0.44: start 7060.178000, end 7174.167000
  267. DEBUG 2013-08-28 03:54:10.205 [Thread-14]     Metadata:
  268. DEBUG 2013-08-28 03:54:10.205 [Thread-14]       title           : Into the Death Star
  269. DEBUG 2013-08-28 03:54:10.205 [Thread-14]     Chapter #0.45: start 7174.167000, end 7318.853000
  270. DEBUG 2013-08-28 03:54:10.205 [Thread-14]     Metadata:
  271. DEBUG 2013-08-28 03:54:10.205 [Thread-14]       title           : Anakin Unmasked
  272. DEBUG 2013-08-28 03:54:10.206 [Thread-14]     Chapter #0.46: start 7318.853000, end 7490.566000
  273. DEBUG 2013-08-28 03:54:10.206 [Thread-14]     Metadata:
  274. DEBUG 2013-08-28 03:54:10.206 [Thread-14]       title           : Death Star Destroyed
  275. DEBUG 2013-08-28 03:54:10.206 [Thread-14]     Chapter #0.47: start 7490.566000, end 7527.437000
  276. DEBUG 2013-08-28 03:54:10.206 [Thread-14]     Metadata:
  277. DEBUG 2013-08-28 03:54:10.206 [Thread-14]       title           : Funeral Pyre
  278. DEBUG 2013-08-28 03:54:10.206 [Thread-14]     Chapter #0.48: start 7527.437000, end 7676.043000
  279. DEBUG 2013-08-28 03:54:10.206 [Thread-14]     Metadata:
  280. DEBUG 2013-08-28 03:54:10.207 [Thread-14]       title           : Celebration
  281. DEBUG 2013-08-28 03:54:10.207 [Thread-14]     Chapter #0.49: start 7676.043000, end 8087.382000
  282. DEBUG 2013-08-28 03:54:10.207 [Thread-14]     Metadata:
  283. DEBUG 2013-08-28 03:54:10.208 [Thread-14]       title           : End Credits
  284. DEBUG 2013-08-28 03:54:10.208 [Thread-14]     Stream #0:0(eng): Video: h264 (High), yuv420p, 1920x820 [SAR 1:1 DAR 96:41], 23.98 fps, 23.98 tbr, 1k tbn, 47.95 tbc (default)
  285. DEBUG 2013-08-28 03:54:10.209 [Thread-14]     Metadata:
  286. DEBUG 2013-08-28 03:54:10.209 [Thread-14]       title           : x264
  287. DEBUG 2013-08-28 03:54:10.209 [Thread-14]     Stream #0:1(eng): Audio: dts (DTS-ES), 48000 Hz, 6.1, fltp, 1536 kb/s (default)
  288. DEBUG 2013-08-28 03:54:10.209 [Thread-14]     Metadata:
  289. DEBUG 2013-08-28 03:54:10.209 [Thread-14]       title           : DTS 6.1
  290. DEBUG 2013-08-28 03:54:10.209 [Thread-14]     Stream #0:2(eng): Audio: mp3, 24000 Hz, stereo, s16, 64 kb/s
  291. DEBUG 2013-08-28 03:54:10.209 [Thread-14]     Metadata:
  292. DEBUG 2013-08-28 03:54:10.210 [Thread-14]       title           : George Lucas Commentary
  293. DEBUG 2013-08-28 03:54:10.210 [Thread-14]     Stream #0:3(eng): Audio: mp3, 24000 Hz, stereo, s16, 64 kb/s
  294. DEBUG 2013-08-28 03:54:10.210 [Thread-14]     Metadata:
  295. DEBUG 2013-08-28 03:54:10.210 [Thread-14]       title           : Director's Commentary
  296. DEBUG 2013-08-28 03:54:10.211 [Thread-14]     Stream #0:4(eng): Subtitle: subrip (default)
  297. DEBUG 2013-08-28 03:54:10.211 [Thread-14]     Metadata:
  298. DEBUG 2013-08-28 03:54:10.211 [Thread-14]       title           : Non English Parts
  299. DEBUG 2013-08-28 03:54:10.211 [Thread-14]     Stream #0:5(eng): Subtitle: subrip
  300. DEBUG 2013-08-28 03:54:10.211 [Thread-14]     Metadata:
  301. DEBUG 2013-08-28 03:54:10.211 [Thread-14]       title           : English
  302. DEBUG 2013-08-28 03:54:10.226 [Thread-14] Output #0, image2, to 'pipe:':
  303. DEBUG 2013-08-28 03:54:10.227 [Thread-14]   Metadata:
  304. DEBUG 2013-08-28 03:54:10.227 [Thread-14]     encoder         : Lavf54.31.100
  305. DEBUG 2013-08-28 03:54:10.227 [Thread-14]     Chapter #0.0: start 0.000000, end 85.115000
  306. DEBUG 2013-08-28 03:54:10.227 [Thread-14]     Metadata:
  307. DEBUG 2013-08-28 03:54:10.227 [Thread-14]       title           : Return of the Jedi
  308. DEBUG 2013-08-28 03:54:10.227 [Thread-14]     Chapter #0.1: start 85.115000, end 268.465000
  309. DEBUG 2013-08-28 03:54:10.227 [Thread-14]     Metadata:
  310. DEBUG 2013-08-28 03:54:10.227 [Thread-14]       title           : Vader's Unexpected Visit
  311. DEBUG 2013-08-28 03:54:10.227 [Thread-14]     Chapter #0.2: start 268.465000, end 460.907000
  312. DEBUG 2013-08-28 03:54:10.228 [Thread-14]     Metadata:
  313. DEBUG 2013-08-28 03:54:10.228 [Thread-14]       title           : Arrival at Jabba's Palace
  314. DEBUG 2013-08-28 03:54:10.228 [Thread-14]     Chapter #0.3: start 460.907000, end 711.908000
  315. DEBUG 2013-08-28 03:54:10.228 [Thread-14]     Metadata:
  316. DEBUG 2013-08-28 03:54:10.228 [Thread-14]       title           : A Message and a Gift
  317. DEBUG 2013-08-28 03:54:10.228 [Thread-14]     Chapter #0.4: start 711.908000, end 832.028000
  318. DEBUG 2013-08-28 03:54:10.228 [Thread-14]     Metadata:
  319. DEBUG 2013-08-28 03:54:10.229 [Thread-14]       title           : The Max Rebo Band
  320. DEBUG 2013-08-28 03:54:10.229 [Thread-14]     Chapter #0.5: start 832.028000, end 1026.013000
  321. DEBUG 2013-08-28 03:54:10.229 [Thread-14]     Metadata:
  322. DEBUG 2013-08-28 03:54:10.229 [Thread-14]       title           : The Price for Chewbacca
  323. DEBUG 2013-08-28 03:54:10.229 [Thread-14]     Chapter #0.6: start 1026.013000, end 1300.037000
  324. DEBUG 2013-08-28 03:54:10.229 [Thread-14]     Metadata:
  325. DEBUG 2013-08-28 03:54:10.229 [Thread-14]       title           : Free From the Carbonite
  326. DEBUG 2013-08-28 03:54:10.229 [Thread-14]     Chapter #0.7: start 1300.037000, end 1478.340000
  327. DEBUG 2013-08-28 03:54:10.229 [Thread-14]     Metadata:
  328. DEBUG 2013-08-28 03:54:10.230 [Thread-14]       title           : Enter the Jedi
  329. DEBUG 2013-08-28 03:54:10.230 [Thread-14]     Chapter #0.8: start 1478.340000, end 1747.359000
  330. DEBUG 2013-08-28 03:54:10.230 [Thread-14]     Metadata:
  331. DEBUG 2013-08-28 03:54:10.230 [Thread-14]       title           : "Oh No! the Rancor"
  332. DEBUG 2013-08-28 03:54:10.230 [Thread-14]     Chapter #0.9: start 1747.359000, end 1859.012000
  333. DEBUG 2013-08-28 03:54:10.230 [Thread-14]     Metadata:
  334. DEBUG 2013-08-28 03:54:10.232 [Thread-14]       title           : On the Sail Barge
  335. DEBUG 2013-08-28 03:54:10.232 [Thread-14]     Chapter #0.10: start 1859.012000, end 2234.471000
  336. DEBUG 2013-08-28 03:54:10.232 [Thread-14]     Metadata:
  337. DEBUG 2013-08-28 03:54:10.232 [Thread-14]       title           : The Sarlacc Pit
  338. DEBUG 2013-08-28 03:54:10.233 [Thread-14]     Chapter #0.11: start 2234.471000, end 2342.245000
  339. DEBUG 2013-08-28 03:54:10.233 [Thread-14]     Metadata:
  340. DEBUG 2013-08-28 03:54:10.233 [Thread-14]       title           : The Emperor Arrives
  341. DEBUG 2013-08-28 03:54:10.233 [Thread-14]     Chapter #0.12: start 2342.245000, end 2687.423000
  342. DEBUG 2013-08-28 03:54:10.233 [Thread-14]     Metadata:
  343. DEBUG 2013-08-28 03:54:10.233 [Thread-14]       title           : Yoda's Twilight
  344. DEBUG 2013-08-28 03:54:10.233 [Thread-14]     Chapter #0.13: start 2687.423000, end 2873.400000
  345. DEBUG 2013-08-28 03:54:10.233 [Thread-14]     Metadata:
  346. DEBUG 2013-08-28 03:54:10.233 [Thread-14]       title           : A Certain Point of View
  347. DEBUG 2013-08-28 03:54:10.234 [Thread-14]     Chapter #0.14: start 2873.400000, end 3066.010000
  348. DEBUG 2013-08-28 03:54:10.234 [Thread-14]     Metadata:
  349. DEBUG 2013-08-28 03:54:10.234 [Thread-14]       title           : Rebel Briefing
  350. DEBUG 2013-08-28 03:54:10.234 [Thread-14]     Chapter #0.15: start 3066.010000, end 3182.668000
  351. DEBUG 2013-08-28 03:54:10.234 [Thread-14]     Metadata:
  352. DEBUG 2013-08-28 03:54:10.234 [Thread-14]       title           : Lending the Falcon
  353. DEBUG 2013-08-28 03:54:10.234 [Thread-14]     Chapter #0.16: start 3182.668000, end 3235.095000
  354. DEBUG 2013-08-28 03:54:10.234 [Thread-14]     Metadata:
  355. DEBUG 2013-08-28 03:54:10.234 [Thread-14]       title           : The Emperor's Instructions
  356. DEBUG 2013-08-28 03:54:10.235 [Thread-14]     Chapter #0.17: start 3235.095000, end 3385.245000
  357. DEBUG 2013-08-28 03:54:10.235 [Thread-14]     Metadata:
  358. DEBUG 2013-08-28 03:54:10.235 [Thread-14]       title           : Flying Casual
  359. DEBUG 2013-08-28 03:54:10.235 [Thread-14]     Chapter #0.18: start 3385.245000, end 3493.812000
  360. DEBUG 2013-08-28 03:54:10.235 [Thread-14]     Metadata:
  361. DEBUG 2013-08-28 03:54:10.235 [Thread-14]       title           : Arrival on Endor
  362. DEBUG 2013-08-28 03:54:10.235 [Thread-14]     Chapter #0.19: start 3493.812000, end 3731.716000
  363. DEBUG 2013-08-28 03:54:10.236 [Thread-14]     Metadata:
  364. DEBUG 2013-08-28 03:54:10.236 [Thread-14]       title           : Speeder Bike Chase
  365. DEBUG 2013-08-28 03:54:10.236 [Thread-14]     Chapter #0.20: start 3731.716000, end 3949.267000
  366. DEBUG 2013-08-28 03:54:10.236 [Thread-14]     Metadata:
  367. DEBUG 2013-08-28 03:54:10.236 [Thread-14]       title           : Leia Meets Wicket
  368. DEBUG 2013-08-28 03:54:10.236 [Thread-14]     Chapter #0.21: start 3949.267000, end 4037.480000
  369. DEBUG 2013-08-28 03:54:10.236 [Thread-14]     Metadata:
  370. DEBUG 2013-08-28 03:54:10.236 [Thread-14]       title           : Vader's Report
  371. DEBUG 2013-08-28 03:54:10.237 [Thread-14]     Chapter #0.22: start 4037.480000, end 4291.108000
  372. DEBUG 2013-08-28 03:54:10.237 [Thread-14]     Metadata:
  373. DEBUG 2013-08-28 03:54:10.237 [Thread-14]       title           : An Ewok Trap
  374. DEBUG 2013-08-28 03:54:10.237 [Thread-14]     Chapter #0.23: start 4291.108000, end 4522.673000
  375. DEBUG 2013-08-28 03:54:10.237 [Thread-14]     Metadata:
  376. DEBUG 2013-08-28 03:54:10.237 [Thread-14]       title           : The Golden God
  377. DEBUG 2013-08-28 03:54:10.237 [Thread-14]     Chapter #0.24: start 4522.673000, end 4664.815000
  378. DEBUG 2013-08-28 03:54:10.237 [Thread-14]     Metadata:
  379. DEBUG 2013-08-28 03:54:10.237 [Thread-14]       title           : Campfire Stories
  380. DEBUG 2013-08-28 03:54:10.238 [Thread-14]     Chapter #0.25: start 4664.815000, end 4920.404000
  381. DEBUG 2013-08-28 03:54:10.238 [Thread-14]     Metadata:
  382. DEBUG 2013-08-28 03:54:10.238 [Thread-14]       title           : Brother and Sister
  383. DEBUG 2013-08-28 03:54:10.238 [Thread-14]     Chapter #0.26: start 4920.404000, end 5136.870000
  384. DEBUG 2013-08-28 03:54:10.238 [Thread-14]     Metadata:
  385. DEBUG 2013-08-28 03:54:10.238 [Thread-14]       title           : Luke Surrenders
  386. DEBUG 2013-08-28 03:54:10.238 [Thread-14]     Chapter #0.27: start 5136.870000, end 5182.082000
  387. DEBUG 2013-08-28 03:54:10.239 [Thread-14]     Metadata:
  388. DEBUG 2013-08-28 03:54:10.239 [Thread-14]       title           : Rebel Recon
  389. DEBUG 2013-08-28 03:54:10.239 [Thread-14]     Chapter #0.28: start 5182.082000, end 5240.891000
  390. DEBUG 2013-08-28 03:54:10.240 [Thread-14]     Metadata:
  391. DEBUG 2013-08-28 03:54:10.240 [Thread-14]       title           : The Alliance Fleet
  392. DEBUG 2013-08-28 03:54:10.240 [Thread-14]     Chapter #0.29: start 5240.891000, end 5374.524000
  393. DEBUG 2013-08-28 03:54:10.240 [Thread-14]     Metadata:
  394. DEBUG 2013-08-28 03:54:10.240 [Thread-14]       title           : Back Door
  395. DEBUG 2013-08-28 03:54:10.240 [Thread-14]     Chapter #0.30: start 5374.524000, end 5569.135000
  396. DEBUG 2013-08-28 03:54:10.240 [Thread-14]     Metadata:
  397. DEBUG 2013-08-28 03:54:10.240 [Thread-14]       title           : Luke and the Emperor
  398. DEBUG 2013-08-28 03:54:10.241 [Thread-14]     Chapter #0.31: start 5569.135000, end 5771.421000
  399. DEBUG 2013-08-28 03:54:10.241 [Thread-14]     Metadata:
  400. DEBUG 2013-08-28 03:54:10.241 [Thread-14]       title           : "It's A Trap!"
  401. DEBUG 2013-08-28 03:54:10.241 [Thread-14]     Chapter #0.32: start 5771.421000, end 5995.186000
  402. DEBUG 2013-08-28 03:54:10.241 [Thread-14]     Metadata:
  403. DEBUG 2013-08-28 03:54:10.241 [Thread-14]       title           : Ewok Attack
  404. DEBUG 2013-08-28 03:54:10.241 [Thread-14]     Chapter #0.33: start 5995.186000, end 6113.179000
  405. DEBUG 2013-08-28 03:54:10.241 [Thread-14]     Metadata:
  406. DEBUG 2013-08-28 03:54:10.241 [Thread-14]       title           : Fully Operational
  407. DEBUG 2013-08-28 03:54:10.242 [Thread-14]     Chapter #0.34: start 6113.179000, end 6237.803000
  408. DEBUG 2013-08-28 03:54:10.242 [Thread-14]     Metadata:
  409. DEBUG 2013-08-28 03:54:10.242 [Thread-14]       title           : The Battle Rages
  410. DEBUG 2013-08-28 03:54:10.242 [Thread-14]     Chapter #0.35: start 6237.803000, end 6296.946000
  411. DEBUG 2013-08-28 03:54:10.242 [Thread-14]     Metadata:
  412. DEBUG 2013-08-28 03:54:10.242 [Thread-14]       title           : The Dark Side Beckons
  413. DEBUG 2013-08-28 03:54:10.242 [Thread-14]     Chapter #0.36: start 6296.946000, end 6492.433000
  414. DEBUG 2013-08-28 03:54:10.242 [Thread-14]     Metadata:
  415. DEBUG 2013-08-28 03:54:10.242 [Thread-14]       title           : The Ewoks Turn the Tide
  416. DEBUG 2013-08-28 03:54:10.243 [Thread-14]     Chapter #0.37: start 6492.433000, end 6610.634000
  417. DEBUG 2013-08-28 03:54:10.243 [Thread-14]     Metadata:
  418. DEBUG 2013-08-28 03:54:10.243 [Thread-14]       title           : Father vs Son
  419. DEBUG 2013-08-28 03:54:10.243 [Thread-14]     Chapter #0.38: start 6610.634000, end 6667.107000
  420. DEBUG 2013-08-28 03:54:10.243 [Thread-14]     Metadata:
  421. DEBUG 2013-08-28 03:54:10.243 [Thread-14]       title           : Taking the Bunker
  422. DEBUG 2013-08-28 03:54:10.243 [Thread-14]     Chapter #0.39: start 6667.107000, end 6847.120000
  423. DEBUG 2013-08-28 03:54:10.243 [Thread-14]     Metadata:
  424. DEBUG 2013-08-28 03:54:10.243 [Thread-14]       title           : A Jedi's Fury
  425. DEBUG 2013-08-28 03:54:10.245 [Thread-14]     Chapter #0.40: start 6847.120000, end 6877.859000
  426. DEBUG 2013-08-28 03:54:10.245 [Thread-14]     Metadata:
  427. DEBUG 2013-08-28 03:54:10.245 [Thread-14]       title           : The Shield Is Down
  428. DEBUG 2013-08-28 03:54:10.245 [Thread-14]     Chapter #0.41: start 6877.859000, end 6927.492000
  429. DEBUG 2013-08-28 03:54:10.245 [Thread-14]     Metadata:
  430. DEBUG 2013-08-28 03:54:10.245 [Thread-14]       title           : Force Lightning
  431. DEBUG 2013-08-28 03:54:10.245 [Thread-14]     Chapter #0.42: start 6927.492000, end 7030.178000
  432. DEBUG 2013-08-28 03:54:10.245 [Thread-14]     Metadata:
  433. DEBUG 2013-08-28 03:54:10.246 [Thread-14]       title           : Vader's Redemption
  434. DEBUG 2013-08-28 03:54:10.246 [Thread-14]     Chapter #0.43: start 7030.178000, end 7144.167000
  435. DEBUG 2013-08-28 03:54:10.246 [Thread-14]     Metadata:
  436. DEBUG 2013-08-28 03:54:10.246 [Thread-14]       title           : Into the Death Star
  437. DEBUG 2013-08-28 03:54:10.246 [Thread-14]     Chapter #0.44: start 7144.167000, end 7288.853000
  438. DEBUG 2013-08-28 03:54:10.246 [Thread-14]     Metadata:
  439. DEBUG 2013-08-28 03:54:10.246 [Thread-14]       title           : Anakin Unmasked
  440. DEBUG 2013-08-28 03:54:10.246 [Thread-14]     Chapter #0.45: start 7288.853000, end 7460.566000
  441. DEBUG 2013-08-28 03:54:10.247 [Thread-14]     Metadata:
  442. DEBUG 2013-08-28 03:54:10.247 [Thread-14]       title           : Death Star Destroyed
  443. DEBUG 2013-08-28 03:54:10.248 [Thread-14]     Chapter #0.46: start 7460.566000, end 7497.437000
  444. DEBUG 2013-08-28 03:54:10.248 [Thread-14]     Metadata:
  445. DEBUG 2013-08-28 03:54:10.248 [Thread-14]       title           : Funeral Pyre
  446. DEBUG 2013-08-28 03:54:10.248 [Thread-14]     Chapter #0.47: start 7497.437000, end 7646.043000
  447. DEBUG 2013-08-28 03:54:10.248 [Thread-14]     Metadata:
  448. DEBUG 2013-08-28 03:54:10.248 [Thread-14]       title           : Celebration
  449. DEBUG 2013-08-28 03:54:10.248 [Thread-14]     Chapter #0.48: start 7646.043000, end 8057.382000
  450. DEBUG 2013-08-28 03:54:10.248 [Thread-14]     Metadata:
  451. DEBUG 2013-08-28 03:54:10.248 [Thread-14]       title           : End Credits
  452. DEBUG 2013-08-28 03:54:10.248 [Thread-14]     Stream #0:0(eng): Video: mjpeg, yuvj420p, 320x180 [SAR 54:41 DAR 96:41], q=2-31, 200 kb/s, 90k tbn, 23.98 tbc (default)
  453. DEBUG 2013-08-28 03:54:10.249 [Thread-14]     Metadata:
  454. DEBUG 2013-08-28 03:54:10.249 [Thread-14]       title           : x264
  455. DEBUG 2013-08-28 03:54:10.249 [Thread-14] Stream mapping:
  456. DEBUG 2013-08-28 03:54:10.249 [Thread-14]   Stream #0:0 -> #0:0 (h264 -> mjpeg)
  457. DEBUG 2013-08-28 03:54:10.249 [Thread-14] Press [q] to stop, [?] for help
  458. DEBUG 2013-08-28 03:54:10.762 [Thread-14] frame=    0 fps=0.0 q=0.0 size=       0kB time=00:00:00.00 bitrate=   0.0kbits/s dup=0 drop=34    
  459. DEBUG 2013-08-28 03:54:10.983 [UPNP-AliveMessageSender] Sending ALIVE...
  460. DEBUG 2013-08-28 03:54:11.276 [Thread-14] frame=    0 fps=0.0 q=0.0 size=       0kB time=00:00:00.00 bitrate=   0.0kbits/s dup=0 drop=71    
  461. DEBUG 2013-08-28 03:54:11.785 [Thread-14] frame=    0 fps=0.0 q=0.0 size=       0kB time=00:00:00.00 bitrate=   0.0kbits/s dup=0 drop=97    
  462. DEBUG 2013-08-28 03:54:12.277 [Thread-14] frame=    0 fps=0.0 q=0.0 size=       0kB time=00:00:00.00 bitrate=   0.0kbits/s dup=0 drop=141    
  463. DEBUG 2013-08-28 03:54:12.797 [Thread-14] frame=    0 fps=0.0 q=0.0 size=       0kB time=00:00:00.00 bitrate=   0.0kbits/s dup=0 drop=179    
  464. DEBUG 2013-08-28 03:54:13.317 [Thread-14] frame=    0 fps=0.0 q=0.0 size=       0kB time=00:00:00.00 bitrate=   0.0kbits/s dup=0 drop=195    
  465. DEBUG 2013-08-28 03:54:13.807 [Thread-14] frame=    1 fps=0.3 q=0.0 Lsize=       0kB time=00:00:00.04 bitrate=   0.0kbits/s dup=0 drop=205    
  466. DEBUG 2013-08-28 03:54:13.807 [Thread-14]
  467. DEBUG 2013-08-28 03:54:13.807 [Thread-14] video:10kB audio:0kB subtitle:0 global headers:0kB muxing overhead -100.000000%
  468. DEBUG 2013-08-28 03:54:13.982 [New I/O server worker #1-2] No encoding detected for G:\Movies\Star.Wars.Episode.VI.Return.Of.The.Jedi.1983.1080p.BluRay.DTS.x264.D-Z0N3\Star.Wars.Episode.6.Return.Of.The.Jedi.1983.1080p.BluRay.DTS.x264.D-Z0N3.MediaInfo.txt.
  469. INFO  2013-08-28 03:54:15.432 [New I/O server worker #1-3] Starting transcode/remux of Star.Wars.Episode.6.Return.Of.The.Jedi.1983.1080p.BluRay.DTS.x264.D-Z0N3.mkv
  470. DEBUG 2013-08-28 03:54:15.441 [New I/O server worker #1-3] Creating pipe \\.\pipe\1377676455439ffmpegvideo
  471. DEBUG 2013-08-28 03:54:15.451 [New I/O server worker #1-3] Creating pipe \\.\pipe\1377676455439videoout
  472. DEBUG 2013-08-28 03:54:15.454 [New I/O server worker #1-3] Starting "C:\Program Files (x86)\PS3 Media Server\win32\ffmpeg.exe" -i G:\Movies\Star.Wars.Episode.VI.Return.Of.The.Jedi.1983.1080p.BluRay.DTS.x264.D-Z0N3\Star.Wars.Episode.6.Return.Of.The.Jedi.1983.1080p.BluRay.DTS.x264.D-Z0N3.mkv -vframes 1 -vcodec copy -f h264 -vbsf h264_mp4toannexb -an -y pipe:
  473. DEBUG 2013-08-28 03:54:15.456 [Thread-18] Waiting for pipe connection \\.\pipe\1377676455439ffmpegvideo
  474. DEBUG 2013-08-28 03:54:15.458 [Thread-19] Waiting for pipe connection \\.\pipe\1377676455439videoout
  475. DEBUG 2013-08-28 03:54:15.460 [New I/O server worker #1-3] Attaching thread: ffmpeg.exe-2
  476. DEBUG 2013-08-28 03:54:15.495 [Thread-21] ffmpeg version N-45279-g1a104bf Copyright (c) 2000-2012 the FFmpeg developers
  477. DEBUG 2013-08-28 03:54:15.496 [Thread-21]   built on Oct 10 2012 19:19:16 with gcc 4.7.2 (GCC)
  478. DEBUG 2013-08-28 03:54:15.496 [Thread-21]   configuration: --enable-gpl --enable-version3 --disable-pthreads --enable-runtime-cpudetect --enable-avisynth --enable-bzlib --enable-frei0r --enable-libass --enable-libcelt --enable-libopencore-amrnb --enable-libopencore-amrwb --enable-libfreetype --enable-libgsm --enable-libmp3lame --enable-libnut --enable-libopenjpeg --enable-librtmp --enable-libschroedinger --enable-libspeex --enable-libtheora --enable-libutvideo --enable-libvo-aacenc --enable-libvo-amrwbenc --enable-libvorbis --enable-libvpx --enable-libx264 --enable-libxavs --enable-libxvid --enable-zlib
  479. DEBUG 2013-08-28 03:54:15.496 [Thread-21]   libavutil      51. 74.100 / 51. 74.100
  480. DEBUG 2013-08-28 03:54:15.496 [Thread-21]   libavcodec     54. 65.100 / 54. 65.100
  481. DEBUG 2013-08-28 03:54:15.496 [Thread-21]   libavformat    54. 31.100 / 54. 31.100
  482. DEBUG 2013-08-28 03:54:15.496 [Thread-21]   libavdevice    54.  3.100 / 54.  3.100
  483. DEBUG 2013-08-28 03:54:15.496 [Thread-21]   libavfilter     3. 19.102 /  3. 19.102
  484. DEBUG 2013-08-28 03:54:15.496 [Thread-21]   libswscale      2.  1.101 /  2.  1.101
  485. DEBUG 2013-08-28 03:54:15.496 [Thread-21]   libswresample   0. 16.100 /  0. 16.100
  486. DEBUG 2013-08-28 03:54:15.496 [Thread-21]   libpostproc    52.  1.100 / 52.  1.100
  487. DEBUG 2013-08-28 03:54:15.564 [Thread-21] [dca @ 0429f660] Number of channels changed in DCA decoder (6 -> 7)
  488. DEBUG 2013-08-28 03:54:15.571 [Thread-21] Input #0, matroska,webm, from 'G:\Movies\Star.Wars.Episode.VI.Return.Of.The.Jedi.1983.1080p.BluRay.DTS.x264.D-Z0N3\Star.Wars.Episode.6.Return.Of.The.Jedi.1983.1080p.BluRay.DTS.x264.D-Z0N3.mkv':
  489. DEBUG 2013-08-28 03:54:15.572 [Thread-21]   Metadata:
  490. DEBUG 2013-08-28 03:54:15.572 [Thread-21]     creation_time   : 2011-09-10 00:43:48
  491. DEBUG 2013-08-28 03:54:15.572 [Thread-21]   Duration: 02:14:47.38, start: 0.000000, bitrate: 18289 kb/s
  492. DEBUG 2013-08-28 03:54:15.572 [Thread-21]     Chapter #0.0: start 0.000000, end 21.188000
  493. DEBUG 2013-08-28 03:54:15.572 [Thread-21]     Metadata:
  494. DEBUG 2013-08-28 03:54:15.572 [Thread-21]       title           : Opening Logos
  495. DEBUG 2013-08-28 03:54:15.572 [Thread-21]     Chapter #0.1: start 21.188000, end 115.115000
  496. DEBUG 2013-08-28 03:54:15.572 [Thread-21]     Metadata:
  497. DEBUG 2013-08-28 03:54:15.572 [Thread-21]       title           : Return of the Jedi
  498. DEBUG 2013-08-28 03:54:15.572 [Thread-21]     Chapter #0.2: start 115.115000, end 298.465000
  499. DEBUG 2013-08-28 03:54:15.572 [Thread-21]     Metadata:
  500. DEBUG 2013-08-28 03:54:15.572 [Thread-21]       title           : Vader's Unexpected Visit
  501. DEBUG 2013-08-28 03:54:15.572 [Thread-21]     Chapter #0.3: start 298.465000, end 490.907000
  502. DEBUG 2013-08-28 03:54:15.572 [Thread-21]     Metadata:
  503. DEBUG 2013-08-28 03:54:15.572 [Thread-21]       title           : Arrival at Jabba's Palace
  504. DEBUG 2013-08-28 03:54:15.572 [Thread-21]     Chapter #0.4: start 490.907000, end 741.908000
  505. DEBUG 2013-08-28 03:54:15.572 [Thread-21]     Metadata:
  506. DEBUG 2013-08-28 03:54:15.572 [Thread-21]       title           : A Message and a Gift
  507. DEBUG 2013-08-28 03:54:15.572 [Thread-21]     Chapter #0.5: start 741.908000, end 862.028000
  508. DEBUG 2013-08-28 03:54:15.572 [Thread-21]     Metadata:
  509. DEBUG 2013-08-28 03:54:15.573 [Thread-21]       title           : The Max Rebo Band
  510. DEBUG 2013-08-28 03:54:15.573 [Thread-21]     Chapter #0.6: start 862.028000, end 1056.013000
  511. DEBUG 2013-08-28 03:54:15.573 [Thread-21]     Metadata:
  512. DEBUG 2013-08-28 03:54:15.573 [Thread-21]       title           : The Price for Chewbacca
  513. DEBUG 2013-08-28 03:54:15.573 [Thread-21]     Chapter #0.7: start 1056.013000, end 1330.037000
  514. DEBUG 2013-08-28 03:54:15.573 [Thread-21]     Metadata:
  515. DEBUG 2013-08-28 03:54:15.573 [Thread-21]       title           : Free From the Carbonite
  516. DEBUG 2013-08-28 03:54:15.573 [Thread-21]     Chapter #0.8: start 1330.037000, end 1508.340000
  517. DEBUG 2013-08-28 03:54:15.573 [Thread-21]     Metadata:
  518. DEBUG 2013-08-28 03:54:15.573 [Thread-21]       title           : Enter the Jedi
  519. DEBUG 2013-08-28 03:54:15.573 [Thread-21]     Chapter #0.9: start 1508.340000, end 1777.359000
  520. DEBUG 2013-08-28 03:54:15.573 [Thread-21]     Metadata:
  521. DEBUG 2013-08-28 03:54:15.573 [Thread-21]       title           : "Oh No! the Rancor"
  522. DEBUG 2013-08-28 03:54:15.573 [Thread-21]     Chapter #0.10: start 1777.359000, end 1889.012000
  523. DEBUG 2013-08-28 03:54:15.573 [Thread-21]     Metadata:
  524. DEBUG 2013-08-28 03:54:15.573 [Thread-21]       title           : On the Sail Barge
  525. DEBUG 2013-08-28 03:54:15.573 [Thread-21]     Chapter #0.11: start 1889.012000, end 2264.471000
  526. DEBUG 2013-08-28 03:54:15.573 [Thread-21]     Metadata:
  527. DEBUG 2013-08-28 03:54:15.574 [Thread-21]       title           : The Sarlacc Pit
  528. DEBUG 2013-08-28 03:54:15.574 [Thread-21]     Chapter #0.12: start 2264.471000, end 2372.245000
  529. DEBUG 2013-08-28 03:54:15.574 [Thread-21]     Metadata:
  530. DEBUG 2013-08-28 03:54:15.574 [Thread-21]       title           : The Emperor Arrives
  531. DEBUG 2013-08-28 03:54:15.574 [Thread-21]     Chapter #0.13: start 2372.245000, end 2717.423000
  532. DEBUG 2013-08-28 03:54:15.574 [Thread-21]     Metadata:
  533. DEBUG 2013-08-28 03:54:15.574 [Thread-21]       title           : Yoda's Twilight
  534. DEBUG 2013-08-28 03:54:15.574 [Thread-21]     Chapter #0.14: start 2717.423000, end 2903.400000
  535. DEBUG 2013-08-28 03:54:15.574 [Thread-21]     Metadata:
  536. DEBUG 2013-08-28 03:54:15.576 [Thread-21]       title           : A Certain Point of View
  537. DEBUG 2013-08-28 03:54:15.576 [Thread-21]     Chapter #0.15: start 2903.400000, end 3096.010000
  538. DEBUG 2013-08-28 03:54:15.576 [Thread-21]     Metadata:
  539. DEBUG 2013-08-28 03:54:15.576 [Thread-21]       title           : Rebel Briefing
  540. DEBUG 2013-08-28 03:54:15.576 [Thread-21]     Chapter #0.16: start 3096.010000, end 3212.668000
  541. DEBUG 2013-08-28 03:54:15.576 [Thread-21]     Metadata:
  542. DEBUG 2013-08-28 03:54:15.576 [Thread-21]       title           : Lending the Falcon
  543. DEBUG 2013-08-28 03:54:15.576 [Thread-21]     Chapter #0.17: start 3212.668000, end 3265.095000
  544. DEBUG 2013-08-28 03:54:15.576 [Thread-21]     Metadata:
  545. DEBUG 2013-08-28 03:54:15.576 [Thread-21]       title           : The Emperor's Instructions
  546. DEBUG 2013-08-28 03:54:15.576 [Thread-21]     Chapter #0.18: start 3265.095000, end 3415.245000
  547. DEBUG 2013-08-28 03:54:15.576 [Thread-21]     Metadata:
  548. DEBUG 2013-08-28 03:54:15.576 [Thread-21]       title           : Flying Casual
  549. DEBUG 2013-08-28 03:54:15.576 [Thread-21]     Chapter #0.19: start 3415.245000, end 3523.812000
  550. DEBUG 2013-08-28 03:54:15.576 [Thread-21]     Metadata:
  551. DEBUG 2013-08-28 03:54:15.576 [Thread-21]       title           : Arrival on Endor
  552. DEBUG 2013-08-28 03:54:15.577 [Thread-21]     Chapter #0.20: start 3523.812000, end 3761.716000
  553. DEBUG 2013-08-28 03:54:15.577 [Thread-21]     Metadata:
  554. DEBUG 2013-08-28 03:54:15.577 [Thread-21]       title           : Speeder Bike Chase
  555. DEBUG 2013-08-28 03:54:15.586 [Thread-21]     Chapter #0.21: start 3761.716000, end 3979.267000
  556. DEBUG 2013-08-28 03:54:15.586 [Thread-21]     Metadata:
  557. DEBUG 2013-08-28 03:54:15.586 [Thread-21]       title           : Leia Meets Wicket
  558. DEBUG 2013-08-28 03:54:15.586 [Thread-21]     Chapter #0.22: start 3979.267000, end 4067.480000
  559. DEBUG 2013-08-28 03:54:15.586 [Thread-21]     Metadata:
  560. DEBUG 2013-08-28 03:54:15.586 [Thread-21]       title           : Vader's Report
  561. DEBUG 2013-08-28 03:54:15.586 [Thread-21]     Chapter #0.23: start 4067.480000, end 4321.108000
  562. DEBUG 2013-08-28 03:54:15.586 [Thread-21]     Metadata:
  563. DEBUG 2013-08-28 03:54:15.587 [Thread-21]       title           : An Ewok Trap
  564. DEBUG 2013-08-28 03:54:15.587 [Thread-21]     Chapter #0.24: start 4321.108000, end 4552.673000
  565. DEBUG 2013-08-28 03:54:15.587 [Thread-21]     Metadata:
  566. DEBUG 2013-08-28 03:54:15.587 [Thread-21]       title           : The Golden God
  567. DEBUG 2013-08-28 03:54:15.587 [Thread-21]     Chapter #0.25: start 4552.673000, end 4694.815000
  568. DEBUG 2013-08-28 03:54:15.587 [Thread-21]     Metadata:
  569. DEBUG 2013-08-28 03:54:15.587 [Thread-21]       title           : Campfire Stories
  570. DEBUG 2013-08-28 03:54:15.587 [Thread-21]     Chapter #0.26: start 4694.815000, end 4950.404000
  571. DEBUG 2013-08-28 03:54:15.587 [Thread-21]     Metadata:
  572. DEBUG 2013-08-28 03:54:15.587 [Thread-21]       title           : Brother and Sister
  573. DEBUG 2013-08-28 03:54:15.587 [Thread-21]     Chapter #0.27: start 4950.404000, end 5166.870000
  574. DEBUG 2013-08-28 03:54:15.587 [Thread-21]     Metadata:
  575. DEBUG 2013-08-28 03:54:15.587 [Thread-21]       title           : Luke Surrenders
  576. DEBUG 2013-08-28 03:54:15.587 [Thread-21]     Chapter #0.28: start 5166.870000, end 5212.082000
  577. DEBUG 2013-08-28 03:54:15.587 [Thread-21]     Metadata:
  578. DEBUG 2013-08-28 03:54:15.587 [Thread-21]       title           : Rebel Recon
  579. DEBUG 2013-08-28 03:54:15.587 [Thread-21]     Chapter #0.29: start 5212.082000, end 5270.891000
  580. DEBUG 2013-08-28 03:54:15.587 [Thread-21]     Metadata:
  581. DEBUG 2013-08-28 03:54:15.587 [Thread-21]       title           : The Alliance Fleet
  582. DEBUG 2013-08-28 03:54:15.587 [Thread-21]     Chapter #0.30: start 5270.891000, end 5404.524000
  583. DEBUG 2013-08-28 03:54:15.587 [Thread-21]     Metadata:
  584. DEBUG 2013-08-28 03:54:15.587 [Thread-21]       title           : Back Door
  585. DEBUG 2013-08-28 03:54:15.587 [Thread-21]     Chapter #0.31: start 5404.524000, end 5599.135000
  586. DEBUG 2013-08-28 03:54:15.587 [Thread-21]     Metadata:
  587. DEBUG 2013-08-28 03:54:15.587 [Thread-21]       title           : Luke and the Emperor
  588. DEBUG 2013-08-28 03:54:15.587 [Thread-21]     Chapter #0.32: start 5599.135000, end 5801.421000
  589. DEBUG 2013-08-28 03:54:15.587 [Thread-21]     Metadata:
  590. DEBUG 2013-08-28 03:54:15.587 [Thread-21]       title           : "It's A Trap!"
  591. DEBUG 2013-08-28 03:54:15.588 [Thread-21]     Chapter #0.33: start 5801.421000, end 6025.186000
  592. DEBUG 2013-08-28 03:54:15.588 [Thread-21]     Metadata:
  593. DEBUG 2013-08-28 03:54:15.588 [Thread-21]       title           : Ewok Attack
  594. DEBUG 2013-08-28 03:54:15.588 [Thread-21]     Chapter #0.34: start 6025.186000, end 6143.179000
  595. DEBUG 2013-08-28 03:54:15.588 [Thread-21]     Metadata:
  596. DEBUG 2013-08-28 03:54:15.588 [Thread-21]       title           : Fully Operational
  597. DEBUG 2013-08-28 03:54:15.588 [Thread-21]     Chapter #0.35: start 6143.179000, end 6267.803000
  598. DEBUG 2013-08-28 03:54:15.588 [Thread-21]     Metadata:
  599. DEBUG 2013-08-28 03:54:15.588 [Thread-21]       title           : The Battle Rages
  600. DEBUG 2013-08-28 03:54:15.588 [Thread-21]     Chapter #0.36: start 6267.803000, end 6326.946000
  601. DEBUG 2013-08-28 03:54:15.588 [Thread-21]     Metadata:
  602. DEBUG 2013-08-28 03:54:15.588 [Thread-21]       title           : The Dark Side Beckons
  603. DEBUG 2013-08-28 03:54:15.588 [Thread-21]     Chapter #0.37: start 6326.946000, end 6522.433000
  604. DEBUG 2013-08-28 03:54:15.588 [Thread-21]     Metadata:
  605. DEBUG 2013-08-28 03:54:15.588 [Thread-21]       title           : The Ewoks Turn the Tide
  606. DEBUG 2013-08-28 03:54:15.588 [Thread-21]     Chapter #0.38: start 6522.433000, end 6640.634000
  607. DEBUG 2013-08-28 03:54:15.588 [Thread-21]     Metadata:
  608. DEBUG 2013-08-28 03:54:15.588 [Thread-21]       title           : Father vs Son
  609. DEBUG 2013-08-28 03:54:15.588 [Thread-21]     Chapter #0.39: start 6640.634000, end 6697.107000
  610. DEBUG 2013-08-28 03:54:15.588 [Thread-21]     Metadata:
  611. DEBUG 2013-08-28 03:54:15.588 [Thread-21]       title           : Taking the Bunker
  612. DEBUG 2013-08-28 03:54:15.588 [Thread-21]     Chapter #0.40: start 6697.107000, end 6877.120000
  613. DEBUG 2013-08-28 03:54:15.588 [Thread-21]     Metadata:
  614. DEBUG 2013-08-28 03:54:15.588 [Thread-21]       title           : A Jedi's Fury
  615. DEBUG 2013-08-28 03:54:15.589 [Thread-21]     Chapter #0.41: start 6877.120000, end 6907.859000
  616. DEBUG 2013-08-28 03:54:15.589 [Thread-21]     Metadata:
  617. DEBUG 2013-08-28 03:54:15.589 [Thread-21]       title           : The Shield Is Down
  618. DEBUG 2013-08-28 03:54:15.589 [Thread-21]     Chapter #0.42: start 6907.859000, end 6957.492000
  619. DEBUG 2013-08-28 03:54:15.589 [Thread-21]     Metadata:
  620. DEBUG 2013-08-28 03:54:15.589 [Thread-21]       title           : Force Lightning
  621. DEBUG 2013-08-28 03:54:15.589 [Thread-21]     Chapter #0.43: start 6957.492000, end 7060.178000
  622. DEBUG 2013-08-28 03:54:15.589 [Thread-21]     Metadata:
  623. DEBUG 2013-08-28 03:54:15.589 [Thread-21]       title           : Vader's Redemption
  624. DEBUG 2013-08-28 03:54:15.589 [Thread-21]     Chapter #0.44: start 7060.178000, end 7174.167000
  625. DEBUG 2013-08-28 03:54:15.589 [Thread-21]     Metadata:
  626. DEBUG 2013-08-28 03:54:15.590 [Thread-21]       title           : Into the Death Star
  627. DEBUG 2013-08-28 03:54:15.590 [Thread-21]     Chapter #0.45: start 7174.167000, end 7318.853000
  628. DEBUG 2013-08-28 03:54:15.590 [Thread-21]     Metadata:
  629. DEBUG 2013-08-28 03:54:15.590 [Thread-21]       title           : Anakin Unmasked
  630. DEBUG 2013-08-28 03:54:15.590 [Thread-21]     Chapter #0.46: start 7318.853000, end 7490.566000
  631. DEBUG 2013-08-28 03:54:15.590 [Thread-21]     Metadata:
  632. DEBUG 2013-08-28 03:54:15.590 [Thread-21]       title           : Death Star Destroyed
  633. DEBUG 2013-08-28 03:54:15.590 [Thread-21]     Chapter #0.47: start 7490.566000, end 7527.437000
  634. DEBUG 2013-08-28 03:54:15.590 [Thread-21]     Metadata:
  635. DEBUG 2013-08-28 03:54:15.591 [Thread-21]       title           : Funeral Pyre
  636. DEBUG 2013-08-28 03:54:15.591 [Thread-21]     Chapter #0.48: start 7527.437000, end 7676.043000
  637. DEBUG 2013-08-28 03:54:15.591 [Thread-21]     Metadata:
  638. DEBUG 2013-08-28 03:54:15.591 [Thread-21]       title           : Celebration
  639. DEBUG 2013-08-28 03:54:15.591 [Thread-21]     Chapter #0.49: start 7676.043000, end 8087.382000
  640. DEBUG 2013-08-28 03:54:15.591 [Thread-21]     Metadata:
  641. DEBUG 2013-08-28 03:54:15.591 [Thread-21]       title           : End Credits
  642. DEBUG 2013-08-28 03:54:15.592 [Thread-21]     Stream #0:0(eng): Video: h264 (High), yuv420p, 1920x820 [SAR 1:1 DAR 96:41], 23.98 fps, 23.98 tbr, 1k tbn, 47.95 tbc (default)
  643. DEBUG 2013-08-28 03:54:15.592 [Thread-21]     Metadata:
  644. DEBUG 2013-08-28 03:54:15.592 [Thread-21]       title           : x264
  645. DEBUG 2013-08-28 03:54:15.592 [Thread-21]     Stream #0:1(eng): Audio: dts (DTS-ES), 48000 Hz, 6.1, fltp, 1536 kb/s (default)
  646. DEBUG 2013-08-28 03:54:15.592 [Thread-21]     Metadata:
  647. DEBUG 2013-08-28 03:54:15.593 [Thread-21]       title           : DTS 6.1
  648. DEBUG 2013-08-28 03:54:15.593 [Thread-21]     Stream #0:2(eng): Audio: mp3, 24000 Hz, stereo, s16, 64 kb/s
  649. DEBUG 2013-08-28 03:54:15.593 [Thread-21]     Metadata:
  650. DEBUG 2013-08-28 03:54:15.593 [Thread-21]       title           : George Lucas Commentary
  651. DEBUG 2013-08-28 03:54:15.593 [Thread-21]     Stream #0:3(eng): Audio: mp3, 24000 Hz, stereo, s16, 64 kb/s
  652. DEBUG 2013-08-28 03:54:15.593 [Thread-21]     Metadata:
  653. DEBUG 2013-08-28 03:54:15.593 [Thread-21]       title           : Director's Commentary
  654. DEBUG 2013-08-28 03:54:15.594 [Thread-21]     Stream #0:4(eng): Subtitle: subrip (default)
  655. DEBUG 2013-08-28 03:54:15.594 [Thread-21]     Metadata:
  656. DEBUG 2013-08-28 03:54:15.602 [Thread-21]       title           : Non English Parts
  657. DEBUG 2013-08-28 03:54:15.602 [Thread-21]     Stream #0:5(eng): Subtitle: subrip
  658. DEBUG 2013-08-28 03:54:15.602 [Thread-21]     Metadata:
  659. DEBUG 2013-08-28 03:54:15.602 [Thread-21]       title           : English
  660. DEBUG 2013-08-28 03:54:15.602 [Thread-21] Output #0, h264, to 'pipe:':
  661. DEBUG 2013-08-28 03:54:15.602 [Thread-21]   Metadata:
  662. DEBUG 2013-08-28 03:54:15.602 [Thread-21]     encoder         : Lavf54.31.100
  663. DEBUG 2013-08-28 03:54:15.602 [Thread-21]     Chapter #0.0: start 0.000000, end 21.188000
  664. DEBUG 2013-08-28 03:54:15.602 [Thread-21]     Metadata:
  665. DEBUG 2013-08-28 03:54:15.602 [Thread-21]       title           : Opening Logos
  666. DEBUG 2013-08-28 03:54:15.602 [Thread-21]     Chapter #0.1: start 21.188000, end 115.115000
  667. DEBUG 2013-08-28 03:54:15.602 [Thread-21]     Metadata:
  668. DEBUG 2013-08-28 03:54:15.602 [Thread-21]       title           : Return of the Jedi
  669. DEBUG 2013-08-28 03:54:15.602 [Thread-21]     Chapter #0.2: start 115.115000, end 298.465000
  670. DEBUG 2013-08-28 03:54:15.603 [Thread-21]     Metadata:
  671. DEBUG 2013-08-28 03:54:15.603 [Thread-21]       title           : Vader's Unexpected Visit
  672. DEBUG 2013-08-28 03:54:15.603 [Thread-21]     Chapter #0.3: start 298.465000, end 490.907000
  673. DEBUG 2013-08-28 03:54:15.603 [Thread-21]     Metadata:
  674. DEBUG 2013-08-28 03:54:15.603 [Thread-21]       title           : Arrival at Jabba's Palace
  675. DEBUG 2013-08-28 03:54:15.603 [Thread-21]     Chapter #0.4: start 490.907000, end 741.908000
  676. DEBUG 2013-08-28 03:54:15.603 [Thread-21]     Metadata:
  677. DEBUG 2013-08-28 03:54:15.603 [Thread-21]       title           : A Message and a Gift
  678. DEBUG 2013-08-28 03:54:15.603 [Thread-21]     Chapter #0.5: start 741.908000, end 862.028000
  679. DEBUG 2013-08-28 03:54:15.603 [Thread-21]     Metadata:
  680. DEBUG 2013-08-28 03:54:15.603 [Thread-21]       title           : The Max Rebo Band
  681. DEBUG 2013-08-28 03:54:15.603 [Thread-21]     Chapter #0.6: start 862.028000, end 1056.013000
  682. DEBUG 2013-08-28 03:54:15.603 [Thread-21]     Metadata:
  683. DEBUG 2013-08-28 03:54:15.603 [Thread-21]       title           : The Price for Chewbacca
  684. DEBUG 2013-08-28 03:54:15.603 [Thread-21]     Chapter #0.7: start 1056.013000, end 1330.037000
  685. DEBUG 2013-08-28 03:54:15.603 [Thread-21]     Metadata:
  686. DEBUG 2013-08-28 03:54:15.603 [Thread-21]       title           : Free From the Carbonite
  687. DEBUG 2013-08-28 03:54:15.603 [Thread-21]     Chapter #0.8: start 1330.037000, end 1508.340000
  688. DEBUG 2013-08-28 03:54:15.603 [Thread-21]     Metadata:
  689. DEBUG 2013-08-28 03:54:15.603 [Thread-21]       title           : Enter the Jedi
  690. DEBUG 2013-08-28 03:54:15.603 [Thread-21]     Chapter #0.9: start 1508.340000, end 1777.359000
  691. DEBUG 2013-08-28 03:54:15.603 [Thread-21]     Metadata:
  692. DEBUG 2013-08-28 03:54:15.603 [Thread-21]       title           : "Oh No! the Rancor"
  693. DEBUG 2013-08-28 03:54:15.603 [Thread-21]     Chapter #0.10: start 1777.359000, end 1889.012000
  694. DEBUG 2013-08-28 03:54:15.603 [Thread-21]     Metadata:
  695. DEBUG 2013-08-28 03:54:15.603 [Thread-21]       title           : On the Sail Barge
  696. DEBUG 2013-08-28 03:54:15.603 [Thread-21]     Chapter #0.11: start 1889.012000, end 2264.471000
  697. DEBUG 2013-08-28 03:54:15.604 [Thread-21]     Metadata:
  698. DEBUG 2013-08-28 03:54:15.604 [Thread-21]       title           : The Sarlacc Pit
  699. DEBUG 2013-08-28 03:54:15.604 [Thread-21]     Chapter #0.12: start 2264.471000, end 2372.245000
  700. DEBUG 2013-08-28 03:54:15.604 [Thread-21]     Metadata:
  701. DEBUG 2013-08-28 03:54:15.604 [Thread-21]       title           : The Emperor Arrives
  702. DEBUG 2013-08-28 03:54:15.604 [Thread-21]     Chapter #0.13: start 2372.245000, end 2717.423000
  703. DEBUG 2013-08-28 03:54:15.604 [Thread-21]     Metadata:
  704. DEBUG 2013-08-28 03:54:15.604 [Thread-21]       title           : Yoda's Twilight
  705. DEBUG 2013-08-28 03:54:15.604 [Thread-21]     Chapter #0.14: start 2717.423000, end 2903.400000
  706. DEBUG 2013-08-28 03:54:15.604 [Thread-21]     Metadata:
  707. DEBUG 2013-08-28 03:54:15.604 [Thread-21]       title           : A Certain Point of View
  708. DEBUG 2013-08-28 03:54:15.604 [Thread-21]     Chapter #0.15: start 2903.400000, end 3096.010000
  709. DEBUG 2013-08-28 03:54:15.604 [Thread-21]     Metadata:
  710. DEBUG 2013-08-28 03:54:15.604 [Thread-21]       title           : Rebel Briefing
  711. DEBUG 2013-08-28 03:54:15.604 [Thread-21]     Chapter #0.16: start 3096.010000, end 3212.668000
  712. DEBUG 2013-08-28 03:54:15.604 [Thread-21]     Metadata:
  713. DEBUG 2013-08-28 03:54:15.604 [Thread-21]       title           : Lending the Falcon
  714. DEBUG 2013-08-28 03:54:15.604 [Thread-21]     Chapter #0.17: start 3212.668000, end 3265.095000
  715. DEBUG 2013-08-28 03:54:15.604 [Thread-21]     Metadata:
  716. DEBUG 2013-08-28 03:54:15.604 [Thread-21]       title           : The Emperor's Instructions
  717. DEBUG 2013-08-28 03:54:15.604 [Thread-21]     Chapter #0.18: start 3265.095000, end 3415.245000
  718. DEBUG 2013-08-28 03:54:15.604 [Thread-21]     Metadata:
  719. DEBUG 2013-08-28 03:54:15.604 [Thread-21]       title           : Flying Casual
  720. DEBUG 2013-08-28 03:54:15.604 [Thread-21]     Chapter #0.19: start 3415.245000, end 3523.812000
  721. DEBUG 2013-08-28 03:54:15.604 [Thread-21]     Metadata:
  722. DEBUG 2013-08-28 03:54:15.605 [Thread-21]       title           : Arrival on Endor
  723. DEBUG 2013-08-28 03:54:15.605 [Thread-21]     Chapter #0.20: start 3523.812000, end 3761.716000
  724. DEBUG 2013-08-28 03:54:15.605 [Thread-21]     Metadata:
  725. DEBUG 2013-08-28 03:54:15.605 [Thread-21]       title           : Speeder Bike Chase
  726. DEBUG 2013-08-28 03:54:15.605 [Thread-21]     Chapter #0.21: start 3761.716000, end 3979.267000
  727. DEBUG 2013-08-28 03:54:15.605 [Thread-21]     Metadata:
  728. DEBUG 2013-08-28 03:54:15.606 [Thread-21]       title           : Leia Meets Wicket
  729. DEBUG 2013-08-28 03:54:15.606 [Thread-21]     Chapter #0.22: start 3979.267000, end 4067.480000
  730. DEBUG 2013-08-28 03:54:15.606 [Thread-21]     Metadata:
  731. DEBUG 2013-08-28 03:54:15.606 [Thread-21]       title           : Vader's Report
  732. DEBUG 2013-08-28 03:54:15.606 [Thread-21]     Chapter #0.23: start 4067.480000, end 4321.108000
  733. DEBUG 2013-08-28 03:54:15.606 [Thread-21]     Metadata:
  734. DEBUG 2013-08-28 03:54:15.606 [Thread-21]       title           : An Ewok Trap
  735. DEBUG 2013-08-28 03:54:15.606 [Thread-21]     Chapter #0.24: start 4321.108000, end 4552.673000
  736. DEBUG 2013-08-28 03:54:15.606 [Thread-21]     Metadata:
  737. DEBUG 2013-08-28 03:54:15.606 [Thread-21]       title           : The Golden God
  738. DEBUG 2013-08-28 03:54:15.606 [Thread-21]     Chapter #0.25: start 4552.673000, end 4694.815000
  739. DEBUG 2013-08-28 03:54:15.606 [Thread-21]     Metadata:
  740. DEBUG 2013-08-28 03:54:15.606 [Thread-21]       title           : Campfire Stories
  741. DEBUG 2013-08-28 03:54:15.606 [Thread-21]     Chapter #0.26: start 4694.815000, end 4950.404000
  742. DEBUG 2013-08-28 03:54:15.606 [Thread-21]     Metadata:
  743. DEBUG 2013-08-28 03:54:15.607 [Thread-21]       title           : Brother and Sister
  744. DEBUG 2013-08-28 03:54:15.607 [Thread-21]     Chapter #0.27: start 4950.404000, end 5166.870000
  745. DEBUG 2013-08-28 03:54:15.607 [Thread-21]     Metadata:
  746. DEBUG 2013-08-28 03:54:15.607 [Thread-21]       title           : Luke Surrenders
  747. DEBUG 2013-08-28 03:54:15.607 [Thread-21]     Chapter #0.28: start 5166.870000, end 5212.082000
  748. DEBUG 2013-08-28 03:54:15.607 [Thread-21]     Metadata:
  749. DEBUG 2013-08-28 03:54:15.607 [Thread-21]       title           : Rebel Recon
  750. DEBUG 2013-08-28 03:54:15.607 [Thread-21]     Chapter #0.29: start 5212.082000, end 5270.891000
  751. DEBUG 2013-08-28 03:54:15.608 [Thread-21]     Metadata:
  752. DEBUG 2013-08-28 03:54:15.608 [Thread-21]       title           : The Alliance Fleet
  753. DEBUG 2013-08-28 03:54:15.609 [Thread-21]     Chapter #0.30: start 5270.891000, end 5404.524000
  754. DEBUG 2013-08-28 03:54:15.609 [Thread-21]     Metadata:
  755. DEBUG 2013-08-28 03:54:15.609 [Thread-21]       title           : Back Door
  756. DEBUG 2013-08-28 03:54:15.609 [Thread-21]     Chapter #0.31: start 5404.524000, end 5599.135000
  757. DEBUG 2013-08-28 03:54:15.609 [Thread-21]     Metadata:
  758. DEBUG 2013-08-28 03:54:15.609 [Thread-21]       title           : Luke and the Emperor
  759. DEBUG 2013-08-28 03:54:15.609 [Thread-21]     Chapter #0.32: start 5599.135000, end 5801.421000
  760. DEBUG 2013-08-28 03:54:15.609 [Thread-21]     Metadata:
  761. DEBUG 2013-08-28 03:54:15.610 [Thread-21]       title           : "It's A Trap!"
  762. DEBUG 2013-08-28 03:54:15.610 [Thread-21]     Chapter #0.33: start 5801.421000, end 6025.186000
  763. DEBUG 2013-08-28 03:54:15.610 [Thread-21]     Metadata:
  764. DEBUG 2013-08-28 03:54:15.610 [Thread-21]       title           : Ewok Attack
  765. DEBUG 2013-08-28 03:54:15.610 [Thread-21]     Chapter #0.34: start 6025.186000, end 6143.179000
  766. DEBUG 2013-08-28 03:54:15.610 [Thread-21]     Metadata:
  767. DEBUG 2013-08-28 03:54:15.610 [Thread-21]       title           : Fully Operational
  768. DEBUG 2013-08-28 03:54:15.611 [Thread-21]     Chapter #0.35: start 6143.179000, end 6267.803000
  769. DEBUG 2013-08-28 03:54:15.611 [Thread-21]     Metadata:
  770. DEBUG 2013-08-28 03:54:15.611 [Thread-21]       title           : The Battle Rages
  771. DEBUG 2013-08-28 03:54:15.611 [Thread-21]     Chapter #0.36: start 6267.803000, end 6326.946000
  772. DEBUG 2013-08-28 03:54:15.611 [Thread-21]     Metadata:
  773. DEBUG 2013-08-28 03:54:15.611 [Thread-21]       title           : The Dark Side Beckons
  774. DEBUG 2013-08-28 03:54:15.611 [Thread-21]     Chapter #0.37: start 6326.946000, end 6522.433000
  775. DEBUG 2013-08-28 03:54:15.612 [Thread-21]     Metadata:
  776. DEBUG 2013-08-28 03:54:15.612 [Thread-21]       title           : The Ewoks Turn the Tide
  777. DEBUG 2013-08-28 03:54:15.612 [Thread-21]     Chapter #0.38: start 6522.433000, end 6640.634000
  778. DEBUG 2013-08-28 03:54:15.612 [Thread-21]     Metadata:
  779. DEBUG 2013-08-28 03:54:15.612 [Thread-21]       title           : Father vs Son
  780. DEBUG 2013-08-28 03:54:15.612 [Thread-21]     Chapter #0.39: start 6640.634000, end 6697.107000
  781. DEBUG 2013-08-28 03:54:15.612 [Thread-21]     Metadata:
  782. DEBUG 2013-08-28 03:54:15.612 [Thread-21]       title           : Taking the Bunker
  783. DEBUG 2013-08-28 03:54:15.618 [Thread-21]     Chapter #0.40: start 6697.107000, end 6877.120000
  784. DEBUG 2013-08-28 03:54:15.618 [Thread-21]     Metadata:
  785. DEBUG 2013-08-28 03:54:15.618 [Thread-21]       title           : A Jedi's Fury
  786. DEBUG 2013-08-28 03:54:15.618 [Thread-21]     Chapter #0.41: start 6877.120000, end 6907.859000
  787. DEBUG 2013-08-28 03:54:15.618 [Thread-21]     Metadata:
  788. DEBUG 2013-08-28 03:54:15.618 [Thread-21]       title           : The Shield Is Down
  789. DEBUG 2013-08-28 03:54:15.618 [Thread-21]     Chapter #0.42: start 6907.859000, end 6957.492000
  790. DEBUG 2013-08-28 03:54:15.618 [Thread-21]     Metadata:
  791. DEBUG 2013-08-28 03:54:15.618 [Thread-21]       title           : Force Lightning
  792. DEBUG 2013-08-28 03:54:15.618 [Thread-21]     Chapter #0.43: start 6957.492000, end 7060.178000
  793. DEBUG 2013-08-28 03:54:15.618 [Thread-21]     Metadata:
  794. DEBUG 2013-08-28 03:54:15.618 [Thread-21]       title           : Vader's Redemption
  795. DEBUG 2013-08-28 03:54:15.618 [Thread-21]     Chapter #0.44: start 7060.178000, end 7174.167000
  796. DEBUG 2013-08-28 03:54:15.618 [Thread-21]     Metadata:
  797. DEBUG 2013-08-28 03:54:15.618 [Thread-21]       title           : Into the Death Star
  798. DEBUG 2013-08-28 03:54:15.618 [Thread-21]     Chapter #0.45: start 7174.167000, end 7318.853000
  799. DEBUG 2013-08-28 03:54:15.618 [Thread-21]     Metadata:
  800. DEBUG 2013-08-28 03:54:15.618 [Thread-21]       title           : Anakin Unmasked
  801. DEBUG 2013-08-28 03:54:15.618 [Thread-21]     Chapter #0.46: start 7318.853000, end 7490.566000
  802. DEBUG 2013-08-28 03:54:15.618 [Thread-21]     Metadata:
  803. DEBUG 2013-08-28 03:54:15.619 [Thread-21]       title           : Death Star Destroyed
  804. DEBUG 2013-08-28 03:54:15.619 [Thread-21]     Chapter #0.47: start 7490.566000, end 7527.437000
  805. DEBUG 2013-08-28 03:54:15.619 [Thread-21]     Metadata:
  806. DEBUG 2013-08-28 03:54:15.619 [Thread-21]       title           : Funeral Pyre
  807. DEBUG 2013-08-28 03:54:15.619 [Thread-21]     Chapter #0.48: start 7527.437000, end 7676.043000
  808. DEBUG 2013-08-28 03:54:15.619 [Thread-21]     Metadata:
  809. DEBUG 2013-08-28 03:54:15.619 [Thread-21]       title           : Celebration
  810. DEBUG 2013-08-28 03:54:15.624 [Thread-21]     Chapter #0.49: start 7676.043000, end 8087.382000
  811. DEBUG 2013-08-28 03:54:15.624 [Thread-21]     Metadata:
  812. DEBUG 2013-08-28 03:54:15.624 [Thread-21]       title           : End Credits
  813. DEBUG 2013-08-28 03:54:15.625 [Thread-21]     Stream #0:0(eng): Video: h264, yuv420p, 1920x820 [SAR 1:1 DAR 96:41], q=2-31, 23.98 fps, 90k tbn, 23.98 tbc (default)
  814. DEBUG 2013-08-28 03:54:15.625 [Thread-21]     Metadata:
  815. DEBUG 2013-08-28 03:54:15.625 [Thread-21]       title           : x264
  816. DEBUG 2013-08-28 03:54:15.625 [Thread-21] Stream mapping:
  817. DEBUG 2013-08-28 03:54:15.625 [Thread-21]   Stream #0:0 -> #0:0 (copy)
  818. DEBUG 2013-08-28 03:54:15.625 [Thread-21] Press [q] to stop, [?] for help
  819. DEBUG 2013-08-28 03:54:15.626 [Thread-21] frame=    1 fps=0.0 q=-1.0 Lsize=       1kB time=00:00:00.-4 bitrate=-218.9kbits/s    
  820. DEBUG 2013-08-28 03:54:15.626 [Thread-21]
  821. DEBUG 2013-08-28 03:54:15.626 [Thread-21] video:1kB audio:0kB subtitle:0 global headers:0kB muxing overhead 3.351449%
  822. DEBUG 2013-08-28 03:54:15.633 [New I/O server worker #1-3] Creating pipe \\.\pipe\1377676455633ffmpegaudio01
  823. DEBUG 2013-08-28 03:54:15.634 [New I/O server worker #1-3] Creating pipe \\.\pipe\1377676455633audioout
  824. DEBUG 2013-08-28 03:54:15.778 [Thread-26] Waiting for pipe connection \\.\pipe\1377676455633ffmpegaudio01
  825. DEBUG 2013-08-28 03:54:15.783 [Thread-27] Waiting for pipe connection \\.\pipe\1377676455633audioout
  826. DEBUG 2013-08-28 03:54:15.786 [New I/O server worker #1-3] Creating pipe \\.\pipe\1377676455786tsmuxerout.ts
  827. DEBUG 2013-08-28 03:54:15.787 [Thread-29] Waiting for pipe connection \\.\pipe\1377676455786tsmuxerout.ts
  828. DEBUG 2013-08-28 03:54:15.937 [mencoder.exe-3] Starting "C:\Program Files (x86)\PS3 Media Server\win32\mencoder.exe" -ss 0 G:\Movies\Star.Wars.Episode.VI.Return.Of.The.Jedi.1983.1080p.BluRay.DTS.x264.D-Z0N3\Star.Wars.Episode.6.Return.Of.The.Jedi.1983.1080p.BluRay.DTS.x264.D-Z0N3.mkv -quiet -quiet -really-quiet -msglevel statusline=2 -ovc copy -nosound -mc 0 -noskip -of rawvideo -o \\.\pipe\1377676455439ffmpegvideo
  829. DEBUG 2013-08-28 03:54:15.954 [mencoder.exe-3] Attaching thread: mencoder.exe-3
  830. DEBUG 2013-08-28 03:54:16.057 [mencoder.exe-4] Starting "C:\Program Files (x86)\PS3 Media Server\win32\mencoder.exe" -ss 0 G:\Movies\Star.Wars.Episode.VI.Return.Of.The.Jedi.1983.1080p.BluRay.DTS.x264.D-Z0N3\Star.Wars.Episode.6.Return.Of.The.Jedi.1983.1080p.BluRay.DTS.x264.D-Z0N3.mkv -quiet -quiet -really-quiet -msglevel statusline=2 -channels 2 -ovc copy -of rawaudio -mc 0.1 -noskip -oac copy -quiet -quiet -aid 0 -srate 48000 -o \\.\pipe\1377676455633ffmpegaudio01
  831. DEBUG 2013-08-28 03:54:16.062 [mencoder.exe-4] Attaching thread: mencoder.exe-4
  832. DEBUG 2013-08-28 03:54:16.065 [Thread-18] Result of \\.\pipe\1377676455439ffmpegvideo : true
  833. DEBUG 2013-08-28 03:54:16.151 [tsMuxeR.exe-5] Starting "C:\Program Files (x86)\PS3 Media Server\win32\tsMuxeR.exe" C:\Users\User\AppData\Local\Temp\ps3mediaserver\pms-tsmuxer.meta \\.\pipe\1377676455786tsmuxerout.ts
  834. DEBUG 2013-08-28 03:54:16.162 [tsMuxeR.exe-5] Reading pipe: \\.\pipe\1377676455786tsmuxerout.ts
  835. DEBUG 2013-08-28 03:54:16.362 [Buffered IO End Checker] Stopping process: ffmpeg.exe-1
  836. DEBUG 2013-08-28 03:54:16.364 [tsMuxeR.exe-5] Attaching thread: tsMuxeR.exe-5
  837. DEBUG 2013-08-28 03:54:16.397 [Thread-26] Result of \\.\pipe\1377676455633ffmpegaudio01 : true
  838. DEBUG 2013-08-28 03:54:16.612 [Thread-40] SmartLabs tsMuxeR.  Version 1.10.6  http://www.smlabs.net
  839. INFO  2013-08-28 03:54:16.636 [StartPlaying Event] renderer: 192.168.254.3, file: G:\Movies\Star.Wars.Episode.VI.Return.Of.The.Jedi.1983.1080p.BluRay.DTS.x264.D-Z0N3\Star.Wars.Episode.6.Return.Of.The.Jedi.1983.1080p.BluRay.DTS.x264.D-Z0N3.mkv
  840. DEBUG 2013-08-28 03:54:16.819 [Thread-19] Forced reconnection of \\.\pipe\1377676455439videoout with result : true
  841. DEBUG 2013-08-28 03:54:16.819 [Thread-19] Result of \\.\pipe\1377676455439videoout : true
  842. DEBUG 2013-08-28 03:54:16.820 [Thread-27] Forced reconnection of \\.\pipe\1377676455633audioout with result : true
  843. DEBUG 2013-08-28 03:54:16.820 [Thread-27] Result of \\.\pipe\1377676455633audioout : true
  844. DEBUG 2013-08-28 03:54:16.840 [Thread-40] Decoding H264 stream (track 1): Profile: High@4.1  Resolution: 1920:820p  Frame rate: 23.976
  845. DEBUG 2013-08-28 03:54:16.841 [Thread-40] Change H264 level from 4.1 to 4.1
  846. DEBUG 2013-08-28 03:54:16.841 [Thread-40] H.264 stream does not contain fps field. Muxing fps=23.976
  847. DEBUG 2013-08-28 03:54:16.851 [Thread-40] 100.0% complete
  848. DEBUG 2013-08-28 03:54:16.851 [Thread-40] H264 bitstream changed: insert nal unit delimiters
  849. DEBUG 2013-08-28 03:54:16.851 [Thread-40] H264 bitstream changed: insert pict timing and buffering period SEI units
  850. DEBUG 2013-08-28 03:54:16.851 [Thread-40] Decoding LPCM stream (track 2): Bitrate: 1536Kbps  Sample Rate: 48KHz  Channels: 2  Bits per sample: 16bit
  851. DEBUG 2013-08-28 03:54:16.863 [Thread-29] Result of \\.\pipe\1377676455786tsmuxerout.ts : true
  852. DEBUG 2013-08-28 03:54:16.866 [Thread-40] B-pyramid level 1 detected. Shift DTS to 2 frames
  853. DEBUG 2013-08-28 03:54:17.141 [Thread-40] 100.0% complete
  854. DEBUG 2013-08-28 03:54:17.384 [Thread-40] 100.0% complete
  855. DEBUG 2013-08-28 03:54:17.589 [Thread-40] 100.0% complete
  856. DEBUG 2013-08-28 03:54:17.739 [Thread-40] 100.0% complete
  857. DEBUG 2013-08-28 03:54:17.989 [Thread-40] 100.0% complete
  858. DEBUG 2013-08-28 03:54:18.133 [Buffered IO End Checker] Stopping process: ffmpeg.exe-2
  859. DEBUG 2013-08-28 03:54:18.401 [Thread-40] 100.0% complete
  860. DEBUG 2013-08-28 03:54:18.553 [Thread-40] 100.0% complete
  861. DEBUG 2013-08-28 03:54:18.743 [Thread-40] 100.0% complete
  862. DEBUG 2013-08-28 03:54:19.009 [Thread-40] 100.0% complete
  863. DEBUG 2013-08-28 03:54:19.223 [Thread-40] 100.0% complete
  864. DEBUG 2013-08-28 03:54:19.427 [Thread-40] 100.0% complete
  865. DEBUG 2013-08-28 03:54:20.556 [Thread-40] 100.0% complete
  866. DEBUG 2013-08-28 03:54:21.564 [Thread-40] 100.0% complete
  867. DEBUG 2013-08-28 03:54:22.558 [Thread-40] 100.0% complete
  868. DEBUG 2013-08-28 03:54:23.568 [Thread-40] 100.0% complete
  869. DEBUG 2013-08-28 03:54:24.077 [Thread-40] 100.0% complete
  870. DEBUG 2013-08-28 03:54:25.082 [Thread-40] 100.0% complete
  871. DEBUG 2013-08-28 03:54:25.590 [Thread-40] 100.0% complete
  872. DEBUG 2013-08-28 03:54:26.101 [Thread-40] 100.0% complete
  873. DEBUG 2013-08-28 03:54:27.104 [Thread-40] 100.0% complete
  874. DEBUG 2013-08-28 03:54:28.116 [Thread-40] 100.0% complete
  875. DEBUG 2013-08-28 03:54:29.136 [Thread-40] 100.0% complete
  876. DEBUG 2013-08-28 03:54:31.158 [Thread-40] 100.0% complete
  877. DEBUG 2013-08-28 03:54:33.691 [Thread-40] 100.0% complete
  878. DEBUG 2013-08-28 03:54:35.740 [Thread-40] 100.0% complete
  879. DEBUG 2013-08-28 03:54:39.693 [Thread-40] 100.0% complete
  880. DEBUG 2013-08-28 03:54:43.695 [Thread-40] 100.0% complete
  881. DEBUG 2013-08-28 03:54:45.876 [Thread-40] 100.0% complete
  882. DEBUG 2013-08-28 03:54:46.504 [Thread-40] 100.0% complete
  883. DEBUG 2013-08-28 03:54:47.016 [Thread-40] 100.0% complete
  884. DEBUG 2013-08-28 03:54:47.531 [Thread-40] 100.0% complete
  885. INFO  2013-08-28 03:54:47.650 [UPNPHelper] No IP filter specified, access granted to /192.168.254.7
  886. DEBUG 2013-08-28 03:54:48.036 [Thread-40] 100.0% complete
  887. DEBUG 2013-08-28 03:54:48.541 [Thread-40] 100.0% complete
  888. DEBUG 2013-08-28 03:54:49.056 [Thread-40] 100.0% complete
  889. DEBUG 2013-08-28 03:54:49.558 [Thread-40] 100.0% complete
  890. DEBUG 2013-08-28 03:54:50.561 [Thread-40] 100.0% complete
  891. DEBUG 2013-08-28 03:54:51.071 [Thread-40] 100.0% complete
  892. DEBUG 2013-08-28 03:54:51.576 [Thread-40] 100.0% complete
  893. DEBUG 2013-08-28 03:54:52.086 [Thread-40] 100.0% complete
  894. DEBUG 2013-08-28 03:54:52.590 [Thread-40] 100.0% complete
  895. DEBUG 2013-08-28 03:54:53.094 [Thread-40] 100.0% complete
  896. DEBUG 2013-08-28 03:54:53.603 [Thread-40] 100.0% complete
  897. DEBUG 2013-08-28 03:54:54.111 [Thread-40] 100.0% complete
  898. DEBUG 2013-08-28 03:54:54.619 [Thread-40] 100.0% complete
  899. DEBUG 2013-08-28 03:54:55.157 [Thread-40] 100.0% complete
  900. DEBUG 2013-08-28 03:54:55.769 [Thread-40] 100.0% complete
  901. DEBUG 2013-08-28 03:54:56.284 [Thread-40] 100.0% complete
  902. DEBUG 2013-08-28 03:54:56.795 [Thread-40] 100.0% complete
  903. DEBUG 2013-08-28 03:54:57.311 [Thread-40] 100.0% complete
  904. DEBUG 2013-08-28 03:54:57.820 [Thread-40] 100.0% complete
  905. DEBUG 2013-08-28 03:54:58.342 [Thread-40] 100.0% complete
  906. DEBUG 2013-08-28 03:54:58.866 [Thread-40] 100.0% complete
  907. DEBUG 2013-08-28 03:54:59.376 [Thread-40] 100.0% complete
  908. DEBUG 2013-08-28 03:54:59.900 [Thread-40] 100.0% complete
  909. DEBUG 2013-08-28 03:55:00.406 [Thread-40] 100.0% complete
  910. DEBUG 2013-08-28 03:55:00.909 [Thread-40] 100.0% complete
  911. DEBUG 2013-08-28 03:55:01.415 [Thread-40] 100.0% complete
  912. DEBUG 2013-08-28 03:55:01.922 [Thread-40] 100.0% complete
  913. DEBUG 2013-08-28 03:55:02.433 [Thread-40] 100.0% complete
  914. DEBUG 2013-08-28 03:55:02.936 [Thread-40] 100.0% complete
  915. DEBUG 2013-08-28 03:55:02.976 [New I/O server worker #1-4] Setting margin to 2Mb
  916. DEBUG 2013-08-28 03:55:03.445 [Thread-40] 100.0% complete
  917. DEBUG 2013-08-28 03:55:03.675 [Thread-40] 100.0% complete
  918. DEBUG 2013-08-28 03:55:03.881 [Thread-40] 100.0% complete
  919. DEBUG 2013-08-28 03:55:04.433 [Thread-40] 100.0% complete
  920. DEBUG 2013-08-28 03:55:04.947 [Thread-40] 100.0% complete
  921. DEBUG 2013-08-28 03:55:05.458 [Thread-40] 100.0% complete
  922. DEBUG 2013-08-28 03:55:05.970 [Thread-40] 100.0% complete
  923. DEBUG 2013-08-28 03:55:06.490 [Thread-40] 100.0% complete
  924. DEBUG 2013-08-28 03:55:06.997 [Thread-40] 100.0% complete
  925. DEBUG 2013-08-28 03:55:07.507 [Thread-40] 100.0% complete
  926. DEBUG 2013-08-28 03:55:08.026 [Thread-40] 100.0% complete
  927. DEBUG 2013-08-28 03:55:08.535 [Thread-40] 100.0% complete
  928. DEBUG 2013-08-28 03:55:09.041 [Thread-40] 100.0% complete
  929. DEBUG 2013-08-28 03:55:09.545 [Thread-40] 100.0% complete
  930. DEBUG 2013-08-28 03:55:10.052 [Thread-40] 100.0% complete
  931. DEBUG 2013-08-28 03:55:10.566 [Thread-40] 100.0% complete
  932. DEBUG 2013-08-28 03:55:11.074 [Thread-40] 100.0% complete
  933. DEBUG 2013-08-28 03:55:11.589 [Thread-40] 100.0% complete
  934. DEBUG 2013-08-28 03:55:12.109 [Thread-40] 100.0% complete
  935. DEBUG 2013-08-28 03:55:12.622 [Thread-40] 100.0% complete
  936. DEBUG 2013-08-28 03:55:13.129 [Thread-40] 100.0% complete
  937. DEBUG 2013-08-28 03:55:13.637 [Thread-40] 100.0% complete
  938. DEBUG 2013-08-28 03:55:14.154 [Thread-40] 100.0% complete
  939. DEBUG 2013-08-28 03:55:14.662 [Thread-40] 100.0% complete
  940. DEBUG 2013-08-28 03:55:15.172 [Thread-40] 100.0% complete
  941. DEBUG 2013-08-28 03:55:15.683 [Thread-40] 100.0% complete
  942. DEBUG 2013-08-28 03:55:16.203 [Thread-40] 100.0% complete
  943. DEBUG 2013-08-28 03:55:16.706 [Thread-40] 100.0% complete
  944. DEBUG 2013-08-28 03:55:17.212 [Thread-40] 100.0% complete
  945. DEBUG 2013-08-28 03:55:17.719 [Thread-40] 100.0% complete
  946. DEBUG 2013-08-28 03:55:18.233 [Thread-40] 100.0% complete
  947. DEBUG 2013-08-28 03:55:18.739 [Thread-40] 100.0% complete
  948. DEBUG 2013-08-28 03:55:19.257 [Thread-40] 100.0% complete
  949. DEBUG 2013-08-28 03:55:19.769 [Thread-40] 100.0% complete
  950. DEBUG 2013-08-28 03:55:20.276 [Thread-40] 100.0% complete
  951. DEBUG 2013-08-28 03:55:20.807 [Thread-40] 100.0% complete
  952. DEBUG 2013-08-28 03:55:21.310 [Thread-40] 100.0% complete
  953. DEBUG 2013-08-28 03:55:21.818 [Thread-40] 100.0% complete
  954. DEBUG 2013-08-28 03:55:22.326 [Thread-40] 100.0% complete
  955. DEBUG 2013-08-28 03:55:22.842 [Thread-40] 100.0% complete
  956. DEBUG 2013-08-28 03:55:23.396 [Thread-40] 100.0% complete
  957. DEBUG 2013-08-28 03:55:23.919 [Thread-40] 100.0% complete
  958. DEBUG 2013-08-28 03:55:24.433 [Thread-40] 100.0% complete
  959. DEBUG 2013-08-28 03:55:24.941 [Thread-40] 100.0% complete
  960. DEBUG 2013-08-28 03:55:25.457 [Thread-40] 100.0% complete
  961. DEBUG 2013-08-28 03:55:25.975 [Thread-40] 100.0% complete
  962. DEBUG 2013-08-28 03:55:26.523 [Thread-40] 100.0% complete
  963. DEBUG 2013-08-28 03:55:27.031 [Thread-40] 100.0% complete
  964. DEBUG 2013-08-28 03:55:27.539 [Thread-40] 100.0% complete
  965. DEBUG 2013-08-28 03:55:28.054 [Thread-40] 100.0% complete
  966. DEBUG 2013-08-28 03:55:28.561 [Thread-40] 100.0% complete
  967. DEBUG 2013-08-28 03:55:29.072 [Thread-40] 100.0% complete
  968. DEBUG 2013-08-28 03:55:29.594 [Thread-40] 100.0% complete
  969. DEBUG 2013-08-28 03:55:30.112 [Thread-40] 100.0% complete
  970. DEBUG 2013-08-28 03:55:30.618 [Thread-40] 100.0% complete
  971. DEBUG 2013-08-28 03:55:31.133 [Thread-40] 100.0% complete
  972. DEBUG 2013-08-28 03:55:31.649 [Thread-40] 100.0% complete
  973. DEBUG 2013-08-28 03:55:32.160 [Thread-40] 100.0% complete
  974. DEBUG 2013-08-28 03:55:32.667 [Thread-40] 100.0% complete
  975. DEBUG 2013-08-28 03:55:33.168 [Thread-40] 100.0% complete
  976. DEBUG 2013-08-28 03:55:33.677 [Thread-40] 100.0% complete
  977. DEBUG 2013-08-28 03:55:34.186 [Thread-40] 100.0% complete
  978. DEBUG 2013-08-28 03:55:34.700 [Thread-40] 100.0% complete
  979. DEBUG 2013-08-28 03:55:35.215 [Thread-40] 100.0% complete
  980. DEBUG 2013-08-28 03:55:35.757 [Thread-40] 100.0% complete
  981. DEBUG 2013-08-28 03:55:36.262 [Thread-40] 100.0% complete
  982. DEBUG 2013-08-28 03:55:36.762 [Thread-40] 100.0% complete
  983. DEBUG 2013-08-28 03:55:37.270 [Thread-40] 100.0% complete
  984. DEBUG 2013-08-28 03:55:37.791 [Thread-40] 100.0% complete
  985. DEBUG 2013-08-28 03:55:38.301 [Thread-40] 100.0% complete
  986. DEBUG 2013-08-28 03:55:38.833 [Thread-40] 100.0% complete
  987. DEBUG 2013-08-28 03:55:39.360 [Thread-40] 100.0% complete
  988. DEBUG 2013-08-28 03:55:39.869 [Thread-40] 100.0% complete
  989. DEBUG 2013-08-28 03:55:40.442 [Thread-40] 100.0% complete
  990. DEBUG 2013-08-28 03:55:40.924 [Thread-40] 100.0% complete
  991. DEBUG 2013-08-28 03:55:41.433 [Thread-40] 100.0% complete
  992. DEBUG 2013-08-28 03:55:41.941 [Thread-40] 100.0% complete
  993. DEBUG 2013-08-28 03:55:42.472 [Thread-40] 100.0% complete
  994. DEBUG 2013-08-28 03:55:42.978 [Thread-40] 100.0% complete
  995. DEBUG 2013-08-28 03:55:43.482 [Thread-40] 100.0% complete
  996. DEBUG 2013-08-28 03:55:43.986 [Thread-40] 100.0% complete
  997. DEBUG 2013-08-28 03:55:44.493 [Thread-40] 100.0% complete
  998. DEBUG 2013-08-28 03:55:45.002 [Thread-40] 100.0% complete
  999. DEBUG 2013-08-28 03:55:45.510 [Thread-40] 100.0% complete
  1000. DEBUG 2013-08-28 03:55:46.019 [Thread-40] 100.0% complete
  1001. DEBUG 2013-08-28 03:55:46.526 [Thread-40] 100.0% complete
  1002. DEBUG 2013-08-28 03:55:47.038 [Thread-40] 100.0% complete
  1003. DEBUG 2013-08-28 03:55:47.547 [Thread-40] 100.0% complete
  1004. DEBUG 2013-08-28 03:55:48.053 [Thread-40] 100.0% complete
  1005. DEBUG 2013-08-28 03:55:48.569 [Thread-40] 100.0% complete
  1006. DEBUG 2013-08-28 03:55:49.079 [Thread-40] 100.0% complete
  1007. DEBUG 2013-08-28 03:55:49.588 [Thread-40] 100.0% complete
  1008. DEBUG 2013-08-28 03:55:50.096 [Thread-40] 100.0% complete
  1009. DEBUG 2013-08-28 03:55:50.606 [Thread-40] 100.0% complete
  1010. DEBUG 2013-08-28 03:55:51.112 [Thread-40] 100.0% complete
  1011. DEBUG 2013-08-28 03:55:51.622 [Thread-40] 100.0% complete
  1012. DEBUG 2013-08-28 03:55:52.134 [Thread-40] 100.0% complete
  1013. DEBUG 2013-08-28 03:55:52.656 [Thread-40] 100.0% complete
  1014. DEBUG 2013-08-28 03:55:53.160 [Thread-40] 100.0% complete
  1015. DEBUG 2013-08-28 03:55:53.584 [New I/O server worker #1-3] Requesting time seek: 212.0 seconds
  1016. DEBUG 2013-08-28 03:55:53.585 [External Process Stopper] Stopping process: tsMuxeR.exe-5
  1017. DEBUG 2013-08-28 03:55:53.586 [New I/O server worker #1-3] Creating pipe \\.\pipe\1377676553586ffmpegvideo
  1018. DEBUG 2013-08-28 03:55:53.593 [Thread-27] Disconnected pipe: \\.\pipe\1377676455633audioout
  1019. DEBUG 2013-08-28 03:55:53.596 [New I/O server worker #1-3] Creating pipe \\.\pipe\1377676553586videoout
  1020. DEBUG 2013-08-28 03:55:53.598 [New I/O server worker #1-3] Creating pipe \\.\pipe\1377676553598ffmpegaudio01
  1021. DEBUG 2013-08-28 03:55:53.598 [New I/O server worker #1-3] Creating pipe \\.\pipe\1377676553598audioout
  1022. DEBUG 2013-08-28 03:55:53.601 [Thread-19] Disconnected pipe: \\.\pipe\1377676455439videoout
  1023. DEBUG 2013-08-28 03:55:53.601 [Thread-42] Waiting for pipe connection \\.\pipe\1377676553586ffmpegvideo
  1024. DEBUG 2013-08-28 03:55:53.601 [Thread-29] Error: null
  1025. DEBUG 2013-08-28 03:55:53.604 [Thread-18] Error: null
  1026. DEBUG 2013-08-28 03:55:53.604 [Thread-47] Waiting for pipe connection \\.\pipe\1377676553598audioout
  1027. DEBUG 2013-08-28 03:55:53.601 [External Process Stopper] Stopping process: mencoder.exe-3
  1028. DEBUG 2013-08-28 03:55:53.613 [External Process Stopper] Stopping process: mencoder.exe-4
  1029. DEBUG 2013-08-28 03:55:53.613 [Thread-25] Error :null
  1030. DEBUG 2013-08-28 03:55:53.614 [Thread-26] Error: null
  1031. DEBUG 2013-08-28 03:55:53.615 [Thread-17] Error :null
  1032. DEBUG 2013-08-28 03:55:53.621 [Thread-46] Waiting for pipe connection \\.\pipe\1377676553598ffmpegaudio01
  1033. DEBUG 2013-08-28 03:55:53.621 [Thread-43] Waiting for pipe connection \\.\pipe\1377676553586videoout
  1034. DEBUG 2013-08-28 03:55:53.624 [New I/O server worker #1-3] Creating pipe \\.\pipe\1377676553624tsmuxerout.ts
  1035. DEBUG 2013-08-28 03:55:53.626 [Thread-49] Waiting for pipe connection \\.\pipe\1377676553624tsmuxerout.ts
  1036. DEBUG 2013-08-28 03:55:53.725 [mencoder.exe-6] Starting "C:\Program Files (x86)\PS3 Media Server\win32\mencoder.exe" -ss 212.0 G:\Movies\Star.Wars.Episode.VI.Return.Of.The.Jedi.1983.1080p.BluRay.DTS.x264.D-Z0N3\Star.Wars.Episode.6.Return.Of.The.Jedi.1983.1080p.BluRay.DTS.x264.D-Z0N3.mkv -quiet -quiet -really-quiet -msglevel statusline=2 -ovc copy -nosound -mc 0 -noskip -of rawvideo -o \\.\pipe\1377676553586ffmpegvideo
  1037. DEBUG 2013-08-28 03:55:53.729 [mencoder.exe-6] Attaching thread: mencoder.exe-6
  1038. DEBUG 2013-08-28 03:55:53.867 [Thread-42] Result of \\.\pipe\1377676553586ffmpegvideo : true
  1039. DEBUG 2013-08-28 03:55:53.874 [mencoder.exe-7] Starting "C:\Program Files (x86)\PS3 Media Server\win32\mencoder.exe" -ss 212.0 G:\Movies\Star.Wars.Episode.VI.Return.Of.The.Jedi.1983.1080p.BluRay.DTS.x264.D-Z0N3\Star.Wars.Episode.6.Return.Of.The.Jedi.1983.1080p.BluRay.DTS.x264.D-Z0N3.mkv -quiet -quiet -really-quiet -msglevel statusline=2 -channels 2 -ovc copy -of rawaudio -mc 0.1 -noskip -oac copy -quiet -quiet -aid 0 -srate 48000 -o \\.\pipe\1377676553598ffmpegaudio01
  1040. DEBUG 2013-08-28 03:55:53.891 [mencoder.exe-7] Attaching thread: mencoder.exe-7
  1041. DEBUG 2013-08-28 03:55:53.983 [tsMuxeR.exe-8] Starting "C:\Program Files (x86)\PS3 Media Server\win32\tsMuxeR.exe" C:\Users\User\AppData\Local\Temp\ps3mediaserver\pms-tsmuxer.meta \\.\pipe\1377676553624tsmuxerout.ts
  1042. DEBUG 2013-08-28 03:55:53.986 [tsMuxeR.exe-8] Reading pipe: \\.\pipe\1377676553624tsmuxerout.ts
  1043. DEBUG 2013-08-28 03:55:54.174 [tsMuxeR.exe-8] Attaching thread: tsMuxeR.exe-8
  1044. INFO  2013-08-28 03:55:54.176 [mencoder.exe-7] Process C:\Program Files (x86)\PS3 Media Server\win32\mencoder.exe has a return code of -1073741819! Maybe an error occurred... check the log file
  1045. DEBUG 2013-08-28 03:55:54.261 [Thread-60] SmartLabs tsMuxeR.  Version 1.10.6  http://www.smlabs.net
  1046. DEBUG 2013-08-28 03:55:54.468 [Thread-43] Forced reconnection of \\.\pipe\1377676553586videoout with result : true
  1047. DEBUG 2013-08-28 03:55:54.468 [Thread-43] Result of \\.\pipe\1377676553586videoout : true
  1048. DEBUG 2013-08-28 03:55:54.470 [Thread-47] Forced reconnection of \\.\pipe\1377676553598audioout with result : true
  1049. DEBUG 2013-08-28 03:55:54.470 [Thread-47] Result of \\.\pipe\1377676553598audioout : true
  1050. DEBUG 2013-08-28 03:55:54.475 [Thread-60] Decoding H264 stream (track 1): Profile: High@4.1  Resolution: 1920:820p  Frame rate: 23.976
  1051. DEBUG 2013-08-28 03:55:54.475 [Thread-60] Change H264 level from 4.1 to 4.1
  1052. DEBUG 2013-08-28 03:55:54.475 [Thread-60] H.264 stream does not contain fps field. Muxing fps=23.976
  1053. DEBUG 2013-08-28 03:56:12.522 [Buffered IO End Checker] Stopping process: tsMuxeR.exe-8
  1054. DEBUG 2013-08-28 03:56:12.522 [Thread-42] Error: null
  1055. DEBUG 2013-08-28 03:56:12.523 [Buffered IO End Checker] Stopping process: mencoder.exe-6
  1056. DEBUG 2013-08-28 03:56:12.523 [Thread-45] Error :null
  1057. DEBUG 2013-08-28 03:56:12.523 [Thread-47] Disconnected pipe: \\.\pipe\1377676553598audioout
  1058. DEBUG 2013-08-28 03:56:12.524 [Buffered IO End Checker] Stopping process: mencoder.exe-7
  1059. DEBUG 2013-08-28 03:56:12.527 [Thread-43] Disconnected pipe: \\.\pipe\1377676553586videoout
  1060. DEBUG 2013-08-28 03:56:12.528 [Thread-41] Error :null
  1061. INFO  2013-08-28 03:56:14.025 [StopPlaying Event] renderer: 192.168.254.3, file: G:\Movies\Star.Wars.Episode.VI.Return.Of.The.Jedi.1983.1080p.BluRay.DTS.x264.D-Z0N3\Star.Wars.Episode.6.Return.Of.The.Jedi.1983.1080p.BluRay.DTS.x264.D-Z0N3.mkv