SHARE
TWEET

Untitled

a guest Jan 11th, 2017 59 Never
Not a member of Pastebin yet? Sign Up, it unlocks many cool features!
  1. Общее
  2. Уникальный идентификатор                 : 209191006642366516874347291751909560007 (0x9D60B8EDD2E93770BACBC8ADD5E60EC7)
  3. Полное имя                               : F:\Video\The.Light.Between.Oceans.2016.D.BDRip.720p.ExKinoRay.mkv
  4. Формат                                   : Matroska
  5. Версия формата                           : Version 4 / Version 2
  6. Размер файла                             : 9,18 Гбайт
  7. Продолжительность                        : 2 ч. 12 м.
  8. Общий поток                              : 9893 Кбит/сек
  9. Дата кодирования                         : UTC 2017-01-11 16:58:41
  10. Программа кодирования                    : mkvmerge v8.3.0 ('Over the Horizon') 64bit
  11. Библиотека кодирования                   : libebml v1.3.1 + libmatroska v1.4.2
  12.  
  13. Видео
  14. Идентификатор                            : 1
  15. Формат                                   : AVC
  16. Формат/Информация                        : Advanced Video Codec
  17. Профиль формата                          : High@L4
  18. Параметр CABAC формата                   : Да
  19. Параметр ReFrames формата                : 12 кадров
  20. Идентификатор кодека                     : V_MPEG4/ISO/AVC
  21. Продолжительность                        : 2 ч. 12 м.
  22. Битрейт                                  : 8000 Кбит/сек
  23. Ширина                                   : 1280 пикселей
  24. Высота                                   : 536 пикселей
  25. Соотношение сторон                       : 2,40:1
  26. Режим частоты кадров                     : Постоянный
  27. Частота кадров                           : 23,976 (24000/1001) кадра/сек
  28. Цветовое пространство                    : YUV
  29. Субдискретизация насыщенности            : 4:2:0
  30. Битовая глубина                          : 8 бит
  31. Тип развёртки                            : Прогрессивная
  32. Бит/(Пиксели*Кадры)                      : 0.486
  33. Размер потока                            : 7,42 Гбайт (81%)
  34. Библиотека кодирования                   : x264 core 142 r2431+42 c69a006 tMod [8-bit@all X86_64]
  35. Настройки программы                      : cabac=1 / ref=12 / deblock=1:-3:-3 / analyse=0x3:0x113 / me=umh / subme=11 / psy=1 / fade_compensate=0.00 / psy_rd=1.08:1.08 / mixed_ref=1 / me_range=48 / chroma_me=1 / trellis=2 / 8x8dct=1 / cqm=0 / deadzone=21,11 / fast_pskip=0 / chroma_qp_offset=-4 / threads=16 / lookahead_threads=2 / sliced_threads=0 / nr=0 / decimate=0 / interlaced=0 / bluray_compat=0 / constrained_intra=0 / fgo=0 / bframes=8 / b_pyramid=2 / b_adapt=2 / b_bias=0 / direct=3 / weightb=1 / open_gop=0 / weightp=2 / keyint=240 / keyint_min=23 / scenecut=40 / intra_refresh=0 / rc_lookahead=150 / rc=2pass / mbtree=0 / bitrate=8000 / ratetol=1.0 / qcomp=0.70 / qpmin=0:0:0 / qpmax=69:69:69 / qpstep=4 / cplxblur=20.0 / qblur=0.5 / vbv_maxrate=25000 / vbv_bufsize=31250 / nal_hrd=none / filler=0 / ip_ratio=1.30 / pb_ratio=1.20 / aq=2:0.80 / aq-sensitivity=10.00 / aq-factor=1.00:1.00:1.00 / aq2=0 / aq3=0
  36. Язык                                     : English
  37. Default                                  : Да
  38. Forced                                   : Нет
  39. Цветовой диапазон                        : Limited
  40. Основные цвета                           : BT.709
  41. Характеристики трансфера                 : BT.709
  42. Коэффициенты матрицы                     : BT.709
  43.  
  44. Аудио #1
  45. Идентификатор                            : 2
  46. Формат                                   : AC-3
  47. Формат/Информация                        : Audio Coding 3
  48. Расширение режима                        : CM (complete main)
  49. Параметр Endianness формата              : Big
  50. Идентификатор кодека                     : A_AC3
  51. Продолжительность                        : 2 ч. 12 м.
  52. Вид битрейта                             : Постоянный
  53. Битрейт                                  : 384 Кбит/сек
  54. Каналы                                   : 6 каналов
  55. Расположение каналов                     : Front: L C R, Side: L R, LFE
  56. Частота                                  : 48,0 КГц
  57. Частота кадров                           : 31,250 кадров/сек (1536 spf)
  58. Битовая глубина                          : 16 бит
  59. Метод сжатия                             : С потерями
  60. Размер потока                            : 365 Мбайт (4%)
  61. Язык                                     : Russian
  62. Default                                  : Да
  63. Forced                                   : Нет
  64.  
  65. Аудио #2
  66. Идентификатор                            : 3
  67. Формат                                   : DTS
  68. Формат/Информация                        : Digital Theater Systems
  69. Режим                                    : 16
  70. Параметр Endianness формата              : Big
  71. Идентификатор кодека                     : A_DTS
  72. Продолжительность                        : 2 ч. 12 м.
  73. Вид битрейта                             : Постоянный
  74. Битрейт                                  : 1509 Кбит/сек
  75. Каналы                                   : 6 каналов
  76. Расположение каналов                     : Front: L C R, Side: L R, LFE
  77. Частота                                  : 48,0 КГц
  78. Частота кадров                           : 93,750 кадра/сек (512 spf)
  79. Битовая глубина                          : 24 бит
  80. Метод сжатия                             : С потерями
  81. Размер потока                            : 1,40 Гбайт (15%)
  82. Язык                                     : English
  83. Default                                  : Нет
  84. Forced                                   : Нет
  85.  
  86. Текст #1
  87. Идентификатор                            : 4
  88. Формат                                   : UTF-8
  89. Идентификатор кодека                     : S_TEXT/UTF8
  90. Идентификатор кодека/Информация          : UTF-8 Plain Text
  91. Продолжительность                        : 31 м. 28 с.
  92. Битрейт                                  : 2 бит/сек
  93. Count of elements                        : 6
  94. Размер потока                            : 489 байт (0%)
  95. Заголовок                                : Forced [iTunes]
  96. Язык                                     : Russian
  97. Default                                  : Да
  98. Forced                                   : Нет
  99.  
  100. Текст #2
  101. Идентификатор                            : 5
  102. Формат                                   : UTF-8
  103. Идентификатор кодека                     : S_TEXT/UTF8
  104. Идентификатор кодека/Информация          : UTF-8 Plain Text
  105. Продолжительность                        : 2 ч. 5 м.
  106. Битрейт                                  : 62 бит/сек
  107. Count of elements                        : 1293
  108. Размер потока                            : 57,0 Кбайт (0%)
  109. Заголовок                                : Full [iTunes]
  110. Язык                                     : Russian
  111. Default                                  : Нет
  112. Forced                                   : Нет
  113.  
  114. Текст #3
  115. Идентификатор                            : 6
  116. Формат                                   : UTF-8
  117. Идентификатор кодека                     : S_TEXT/UTF8
  118. Идентификатор кодека/Информация          : UTF-8 Plain Text
  119. Продолжительность                        : 2 ч. 6 м.
  120. Битрейт                                  : 47 бит/сек
  121. Count of elements                        : 1634
  122. Размер потока                            : 44,1 Кбайт (0%)
  123. Язык                                     : English
  124. Default                                  : Нет
  125. Forced                                   : Нет
  126.  
  127. Меню
  128. 00:00:00.000                             : en:00:00:00.000
  129. 00:04:55.128                             : en:00:04:55.128
  130. 00:11:38.531                             : en:00:11:38.531
  131. 00:17:30.007                             : en:00:17:30.007
  132. 00:23:07.469                             : en:00:23:07.469
  133. 00:29:35.816                             : en:00:29:35.816
  134. 00:35:21.953                             : en:00:35:21.953
  135. 00:42:35.678                             : en:00:42:35.678
  136. 00:49:51.822                             : en:00:49:51.822
  137. 00:55:14.186                             : en:00:55:14.186
  138. 00:59:26.062                             : en:00:59:26.062
  139. 01:05:48.027                             : en:01:05:48.027
  140. 01:10:52.957                             : en:01:10:52.957
  141. 01:13:14.724                             : en:01:13:14.724
  142. 01:22:34.032                             : en:01:22:34.032
  143. 01:31:42.956                             : en:01:31:42.956
  144. 01:42:29.101                             : en:01:42:29.101
  145. 01:51:31.018                             : en:01:51:31.018
  146. 02:01:29.324                             : en:02:01:29.324
  147. 02:07:08.621                             : en:02:07:08.621
RAW Paste Data
Top