SHARE
TWEET

Movie_HD

IamTheBest Dec 6th, 2016 (edited) 5,921 Never
Not a member of Pastebin yet? Sign Up, it unlocks many cool features!
  1. The BFG 2016 720p BluRay x264-SPARKS 4.37GB
  2. http://www.imdb.com/title/tt3691740/?ref_=nv_sr_1
  3. SIZE.............. : 4.37 GiB
  4. RUNTIME........... : 1 h 57 min
  5. VIDEO CODEC....... : x264, High@L4.1
  6. FRAMERATE......... : 23.976 fps
  7. BITRATE........... : 4 702 kb/s
  8. RESOLUTION........ : 1 280 x 536 pixels
  9. AUDIO 1........... : AC-3, 6 channels @ 640 Kbps
  10. https://uploadgig.com/file/download/06c582622eceaA58/The.BFG.2016.720p.BluRay.x264-SPARKS.part1.rar
  11. https://uploadgig.com/file/download/0668fb6D7B50eAe6/The.BFG.2016.720p.BluRay.x264-SPARKS.part2.rar
  12. https://uploadgig.com/file/download/d512071dAbF8fb25/The.BFG.2016.720p.BluRay.x264-SPARKS.part3.rar
  13. https://uploadgig.com/file/download/24D9547b793f8Cef/The.BFG.2016.720p.BluRay.x264-SPARKS.part4.rar
  14. https://uploadgig.com/file/download/7f6307eB14b0f27e/The.BFG.2016.720p.BluRay.x264-SPARKS.part5.rar
  15. https://uploadgig.com/file/download/15CC1403b0ad2e33/The.BFG.2016.720p.BluRay.x264-SPARKS.part6.rar
  16.  
  17. ////////////////////////////////////////////////////////////////
  18. Pete's Dragon 2016 720p BluRay DTS x264-BLOW 4.37GB
  19. http://www.imdb.com/title/tt2788732/?ref_=nv_sr_2
  20. RUNTIME...........: 1 h 42 min
  21. VIDEO CODEC....... : x264, High@L4.1
  22. FRAMERATE......... : 23.976 (24000/1001) fps
  23. BITRATE........... : 4 581 kb/s
  24. RESOLUTION........ : 1 280 x 536
  25. AUDIO 1........... : English - DTS, 6 channels @ Kbps
  26. SUBTITLES......... : English, English
  27. CHAPTERS.......... : Yes
  28. blow-petes.dragon.2016.720p.bluray.x264
  29. https://uploadgig.com/file/download/F0d577e8F1d63c65/blow-petes.dragon.2016.720p.bluray.x264.part1.rar
  30. https://uploadgig.com/file/download/c729A695a43ddfbe/blow-petes.dragon.2016.720p.bluray.x264.part2.rar
  31. https://uploadgig.com/file/download/c81e20Bc8230Ad04/blow-petes.dragon.2016.720p.bluray.x264.part3.rar
  32. https://uploadgig.com/file/download/19c51cD3ceEE8da0/blow-petes.dragon.2016.720p.bluray.x264.part4.rar
  33. https://uploadgig.com/file/download/ae97523CfBbf540e/blow-petes.dragon.2016.720p.bluray.x264.part5.rar
  34. https://uploadgig.com/file/download/a260465587a915C9/blow-petes.dragon.2016.720p.bluray.x264.part6.rar
  35. ////////////////////////////////////////////////////////////////
  36. Gone.in.60.Seconds.2000.1080p.BluRay.x264.DTS-FGT  9.89 GB
  37. ( Nicolas Cage, Angelina Jolie, Giovanni Ribisi )
  38. Ratings IMDB: 6.5/10 from 221,248
  39.  
  40. Video
  41. ID  : 1
  42. Format  : AVC
  43. Format/Info  : Advanced Video Codec
  44. Format profile  : High@L4.1
  45. Format settings, CABAC  : Yes
  46. Format settings, ReFrames  : 5 frames
  47. Codec ID  : V_MPEG4/ISO/AVC
  48. Duration  : 1h 57mn
  49. Bit rate  : 10.5 Mbps
  50. Width  : 1 920 pixels
  51. Height  : 816 pixels
  52. Display aspect ratio  : 2.35:1
  53. Frame rate mode  : Constant
  54. Frame rate  : 23.976 (24000/1001) fps
  55. Color space  : YUV
  56. Chroma subsampling  : 4:2:0
  57. Bit depth  : 8 bits
  58. Scan type  : Progressive
  59. Bits/(Pixel*Frame)  : 0.280
  60. Stream size  : 8.45 GiB (85%)
  61. Writing library  : x264 core 115 r2008 4c552d8
  62. Encoding settings  : cabac=1 / ref=5 / deblock=1:-3:-3 / analyse=0x3:0x133 / me=umh / subme=10 / psy=1 / psy_rd=1.15:0.10 / mixed_ref=1 / me_range=32 / chroma_me=1 / trellis=2 / 8x8dct=1 / cqm=0 / deadzone=21,11 / fast_pskip=0 / chroma_qp_offset=-3 / threads=12 / sliced_threads=0 / nr=0 / decimate=0 / interlaced=0 / bluray_compat=0 / constrained_intra=0 / bframes=7 / b_pyramid=2 / b_adapt=2 / b_bias=0 / direct=3 / weightb=1 / open_gop=0 / weightp=2 / keyint=250 / keyint_min=23 / scenecut=40 / intra_refresh=0 / rc_lookahead=60 / rc=2pass / mbtree=1 / bitrate=10500 / ratetol=1.0 / qcomp=0.75 / qpmin=0 / qpmax=69 / qpstep=4 / cplxblur=20.0 / qblur=0.5 / vbv_maxrate=50000 / vbv_bufsize=62500 / nal_hrd=none / ip_ratio=1.40 / aq=1:0.80
  63. Language  : English
  64. Default  : Yes
  65. Forced  : No
  66.  
  67. Audio
  68. ID  : 2
  69. Format  : DTS
  70. Format/Info  : Digital Theater Systems
  71. Mode  : 16
  72. Format settings, Endianness  : Big
  73. Codec ID  : A_DTS
  74. Duration  : 1h 57mn
  75. Bit rate mode  : Constant
  76. Bit rate  : 1 510 Kbps
  77. Channel(s)  : 6 channels
  78. Channel positions  : Front: L C R, Side: L R, LFE
  79. Sampling rate  : 48.0 KHz
  80. Frame rate  : 93.750 fps (512 spf)
  81. Bit depth  : 24 bits
  82. Compression mode  : Lossy
  83. Delay relative to video  : 72ms
  84. Stream size  : 1.24 GiB (13%)
  85. Language  : English
  86. Default  : Yes
  87. Forced  : No
  88. Gone.in.60.Seconds.2000.1080p.BluRay.x264.DTS-FGT
  89. https://uploadgig.com/file/download/b0056940e00b29A1/Gone.in.60.Seconds.2000.1080p.BluRay.x264.DTS-FGT.part01.rar
  90. https://uploadgig.com/file/download/c3ef8AE119bF091f/Gone.in.60.Seconds.2000.1080p.BluRay.x264.DTS-FGT.part02.rar
  91. https://uploadgig.com/file/download/1Bcf97a26e42c347/Gone.in.60.Seconds.2000.1080p.BluRay.x264.DTS-FGT.part03.rar
  92. https://uploadgig.com/file/download/c37D84186e1835Ed/Gone.in.60.Seconds.2000.1080p.BluRay.x264.DTS-FGT.part04.rar
  93. https://uploadgig.com/file/download/64cd953f029189E2/Gone.in.60.Seconds.2000.1080p.BluRay.x264.DTS-FGT.part05.rar
  94. https://uploadgig.com/file/download/4cBaae217552f53E/Gone.in.60.Seconds.2000.1080p.BluRay.x264.DTS-FGT.part06.rar
  95. https://uploadgig.com/file/download/43f7Dac5137d5ae6/Gone.in.60.Seconds.2000.1080p.BluRay.x264.DTS-FGT.part07.rar
  96. https://uploadgig.com/file/download/8d070404b5Ff907c/Gone.in.60.Seconds.2000.1080p.BluRay.x264.DTS-FGT.part08.rar
  97. https://uploadgig.com/file/download/3f4205fd2a8F7a0b/Gone.in.60.Seconds.2000.1080p.BluRay.x264.DTS-FGT.part09.rar
  98. https://uploadgig.com/file/download/d842127900e2683e/Gone.in.60.Seconds.2000.1080p.BluRay.x264.DTS-FGT.part10.rar
  99. https://uploadgig.com/file/download/b4b8fA3072a31EaC/Gone.in.60.Seconds.2000.1080p.BluRay.x264.DTS-FGT.part11.rar
  100. https://uploadgig.com/file/download/137c7A46Bb6efBf1/Gone.in.60.Seconds.2000.1080p.BluRay.x264.DTS-FGT.part12.rar
  101.  
  102. ////////////////////////////////////////////////////////////////
  103. Kubo And The Two Strings 2016 1080p BluRay DTS x264-HDChina 7.6GB
  104. http://www.imdb.com/title/tt4302938/?ref_=nv_sr_1
  105. SOURCE TYPE.....: BluRay 1080p AVC DTS-HD MA 5.1
  106. ViDEO BiTRATE...: x264 L4.1 High @ 9200 kbps
  107. FRAME RATE......: 23.976 fps
  108. AUDiO...........: English DTS 5.1 @ 1509 kbps
  109. RESOLUTiON......: 1920 x 804
  110. SUBTiTLE........: English
  111. ENCODER ........: Medusa @ HDChina
  112. https://uploadgig.com/file/download/C3e223e27E88956B/Kubo.And.The.Two.Strings.2016.1080p.BluRay.x264.DTS-HDChina.part01.rar
  113. https://uploadgig.com/file/download/4b2Adb3187d84584/Kubo.And.The.Two.Strings.2016.1080p.BluRay.x264.DTS-HDChina.part02.rar
  114. https://uploadgig.com/file/download/7e32972AB12bf281/Kubo.And.The.Two.Strings.2016.1080p.BluRay.x264.DTS-HDChina.part03.rar
  115. https://uploadgig.com/file/download/33E4E25602262f7c/Kubo.And.The.Two.Strings.2016.1080p.BluRay.x264.DTS-HDChina.part04.rar
  116. https://uploadgig.com/file/download/9EBc01e557C3377c/Kubo.And.The.Two.Strings.2016.1080p.BluRay.x264.DTS-HDChina.part05.rar
  117. https://uploadgig.com/file/download/d98Fa41718Aeaf7c/Kubo.And.The.Two.Strings.2016.1080p.BluRay.x264.DTS-HDChina.part06.rar
  118. https://uploadgig.com/file/download/d1b2e1AB8af16a48/Kubo.And.The.Two.Strings.2016.1080p.BluRay.x264.DTS-HDChina.part07.rar
  119. https://uploadgig.com/file/download/056815c361b412f2/Kubo.And.The.Two.Strings.2016.1080p.BluRay.x264.DTS-HDChina.part08.rar
  120. https://uploadgig.com/file/download/8C23CfAbe5cE2103/Kubo.And.The.Two.Strings.2016.1080p.BluRay.x264.DTS-HDChina.part09.rar
  121. https://uploadgig.com/file/download/daD8CfCd457b7604/Kubo.And.The.Two.Strings.2016.1080p.BluRay.x264.DTS-HDChina.part10.rar
  122.  
  123. ////////////////////////////////////////////////////////////////
  124. Don't Breathe 2016 720p BluRay DTS x264-SPARKS 4.4GB
  125. http://www.imdb.com/title/tt4160708/?ref_=nv_sr_1
  126. Dont.Breathe.2016.720p.BluRay.x264-SPARKS
  127. Release.Date: 15.11.2016
  128. Video.......: X264 5557Kbps
  129. Frame.Rate..: 23.976
  130. Resolution..: 1280x536
  131. Audio.......: DTS 1509Kbps 6ch
  132. Language....: English
  133. Length......: 1h 28mn
  134. Source......: Retail BluRay
  135. Size........: 4476MB
  136. Subtitles...: English
  137. https://uploadgig.com/file/download/174698c032867673/Dont.Breathe.2016.720p.BluRay.x264-SPARKS.part1.rar
  138. https://uploadgig.com/file/download/fB1d5e08F9409Bd4/Dont.Breathe.2016.720p.BluRay.x264-SPARKS.part2.rar
  139. https://uploadgig.com/file/download/9460A549defD7c36/Dont.Breathe.2016.720p.BluRay.x264-SPARKS.part3.rar
  140. https://uploadgig.com/file/download/3e18eC48e045d097/Dont.Breathe.2016.720p.BluRay.x264-SPARKS.part4.rar
  141. https://uploadgig.com/file/download/E3E3b61fee2344ec/Dont.Breathe.2016.720p.BluRay.x264-SPARKS.part5.rar
  142. https://uploadgig.com/file/download/5dA835cb63a8f76F/Dont.Breathe.2016.720p.BluRay.x264-SPARKS.part6.rar
  143.  
  144. ////////////////////////////////////////////////////////////////
  145. True Memoirs of an International Assassin 2016 NF 1080p DD5.1 x264-NTb 6.5 GB
  146. http://www.imdb.com/title/tt1542768/?ref_=plg_rt_1
  147. RELEASE NAME........: True.Memoirs.of.an.International.Assassin.2016.1080p.NF.WEBRip.DD5.1.x264-NTb
  148. RUNTIME.............: 1h 38mn
  149. FILE SIZE...........: 6.482 GiB
  150. FORMAT..............: Matroska
  151. VIDEO BITRATE.......: 9 428 Kbps
  152. VIDEO CODEC.........: AVC High@L4.1
  153. ASPECT RATIO........: 2.40:1
  154. RESOLUTION..........: 1920x804
  155. FRAME RATE..........: 23.976 (24000/1001) fps
  156. AUDIO 0.............: English AC3 384 Kbps 6 channels Dolby AC3
  157. SUBTITLES 0.........: English (UTF-8)
  158. SUBTITLES 1.........: English (UTF-8)
  159. SUBTITLES 2.........: French (UTF-8)
  160. SUBTITLES 3.........: German (UTF-8)
  161. SUBTITLES 4.........: Italian (UTF-8)
  162. https://uploadgig.com/file/download/b44bBcB52456eE85/True.Memoirs.of.an.International.Assassin.2016.1080p.NF.WEBRip.DD5.1.x264-NTb.part1.rar
  163. https://uploadgig.com/file/download/3dAB2515Def2142A/True.Memoirs.of.an.International.Assassin.2016.1080p.NF.WEBRip.DD5.1.x264-NTb.part2.rar
  164. https://uploadgig.com/file/download/d4b4bb10ba6B23f5/True.Memoirs.of.an.International.Assassin.2016.1080p.NF.WEBRip.DD5.1.x264-NTb.part3.rar
  165. https://uploadgig.com/file/download/0054379e8B16cd01/True.Memoirs.of.an.International.Assassin.2016.1080p.NF.WEBRip.DD5.1.x264-NTb.part4.rar
  166. https://uploadgig.com/file/download/0540c9a401493B3d/True.Memoirs.of.an.International.Assassin.2016.1080p.NF.WEBRip.DD5.1.x264-NTb.part5.rar
  167. https://uploadgig.com/file/download/5f354871deDE95cd/True.Memoirs.of.an.International.Assassin.2016.1080p.NF.WEBRip.DD5.1.x264-NTb.part6.rar
  168. https://uploadgig.com/file/download/cf8Ce4542AF6f55a/True.Memoirs.of.an.International.Assassin.2016.1080p.NF.WEBRip.DD5.1.x264-NTb.part7.rar
  169. https://uploadgig.com/file/download/1d35a9f405Df1e11/True.Memoirs.of.an.International.Assassin.2016.1080p.NF.WEBRip.DD5.1.x264-NTb.part8.rar
  170.  
  171. ////////////////////////////////////////////////////////////////
  172. X-Men: Apocalypse 2016 720p BluRay DTS-ES x264-VietHD 8.5GB
  173. http://www.imdb.com/title/tt3385516/?ref_=nv_sr_1
  174. RELEASE NAME..: X-Men.Apocalypse.2016.720p.BluRay.DTS-ES.x264-VietHD
  175. RELEASE SIZE..: 8.52 GiB
  176. RUNTIME.......: 2h 23mn
  177. ViDEO CODEC...: x264, CRF=15.8000, High@L4.1
  178. FRAMERATE.....: 23.976 fps
  179. BITRATE.......: 6 735 Kbps
  180. RESOLUTION....: 1280 x 534
  181. AUDIO1........: English DTS-ES 5.1 @ 1509 kbps
  182. AUDIO2........: English DD 2.0 @ 224 Kbps - Commentary
  183. SUBTITLES.....: English, English (forced) and French, Dutch, German, Italian (w/ commentary)
  184. CHAPTERS......: Included
  185. SOURCE........: X-Men: Apocalypse 2016 1080p EUR Blu-ray AVC DTS-HD MA 7.1-TRUEDEF
  186. RELEASE.DATE..: 10/09/2016
  187. https://uploadgig.com/file/download/9fb059e064d3918d/X-Men.Apocalypse.2016.720p.BluRay.DTS-ES.x264-VietHD.part01.rar
  188. https://uploadgig.com/file/download/128372f9eD66708D/X-Men.Apocalypse.2016.720p.BluRay.DTS-ES.x264-VietHD.part02.rar
  189. https://uploadgig.com/file/download/1860c0261cD116B9/X-Men.Apocalypse.2016.720p.BluRay.DTS-ES.x264-VietHD.part03.rar
  190. https://uploadgig.com/file/download/feBdDfb72a2edAb8/X-Men.Apocalypse.2016.720p.BluRay.DTS-ES.x264-VietHD.part04.rar
  191. https://uploadgig.com/file/download/6b902420bD8E9758/X-Men.Apocalypse.2016.720p.BluRay.DTS-ES.x264-VietHD.part05.rar
  192. https://uploadgig.com/file/download/13cac229251E0a84/X-Men.Apocalypse.2016.720p.BluRay.DTS-ES.x264-VietHD.part06.rar
  193. https://uploadgig.com/file/download/842eAf9533b63B17/X-Men.Apocalypse.2016.720p.BluRay.DTS-ES.x264-VietHD.part07.rar
  194. https://uploadgig.com/file/download/2cc06A1c82f123dD/X-Men.Apocalypse.2016.720p.BluRay.DTS-ES.x264-VietHD.part08.rar
  195. https://uploadgig.com/file/download/fcd8e86FAA92f0C3/X-Men.Apocalypse.2016.720p.BluRay.DTS-ES.x264-VietHD.part09.rar
  196. https://uploadgig.com/file/download/97ba5d8E6EB254Ec/X-Men.Apocalypse.2016.720p.BluRay.DTS-ES.x264-VietHD.part10.rar
  197. https://uploadgig.com/file/download/48Fed98c66e7eF70/X-Men.Apocalypse.2016.720p.BluRay.DTS-ES.x264-VietHD.part11.rar
  198. ////////////////////////////////////////////////////////////////
  199. Kubo and the Two Strings 2016 720p BluRay DTS x264-HiDt 4.84GB
  200. http://www.imdb.com/title/tt4302938/?ref_=nv_sr_1
  201. RELEASE NAME..: Kubo.And.The.Two.Strings.2016.720p.BluRay.DTS.x264-HiDt
  202. ENCODED DATE..: UTC 2016-11-10 17:50:07
  203. RELEASE SIZE..: 4.84 GiB
  204. RUNTIME.......: 1h 41mn
  205. VIDEO CODEC...: x264, High@L4.1
  206. FRAMERATE.....: 23.976 (24000/1001) fps
  207. BITRATE.......: 5 117 Kbps
  208. RESOLUTION....: 1280 x 536
  209. AUDIO.........: English DTS 6 channels@1 509 Kbps
  210. AUDIO.........: English AC-3 2 channels@192 Kbps (Audio Commentary.)
  211. SUBTITLES.....: English, English SDH.
  212. CHAPTERS......: Yes
  213. SOURCE........: Kubo and the Two Strings 2016 1080p Blu-ray AVC DTS-HD MA 5.1
  214. ENCODER.......: HiDt
  215. https://uploadgig.com/file/download/e2bF7f75D8edcced/Kubo.And.The.Two.Strings.2016.720p.BluRay.DTS.x264-HiDt.part1.rar
  216. https://uploadgig.com/file/download/BdF4abec606f3069/Kubo.And.The.Two.Strings.2016.720p.BluRay.DTS.x264-HiDt.part2.rar
  217. https://uploadgig.com/file/download/880ee9C3787f1196/Kubo.And.The.Two.Strings.2016.720p.BluRay.DTS.x264-HiDt.part3.rar
  218. https://uploadgig.com/file/download/15247a0F19f8EC25/Kubo.And.The.Two.Strings.2016.720p.BluRay.DTS.x264-HiDt.part4.rar
  219. https://uploadgig.com/file/download/96706E3B280d9814/Kubo.And.The.Two.Strings.2016.720p.BluRay.DTS.x264-HiDt.part5.rar
  220. https://uploadgig.com/file/download/BaBc680f7ad902fb/Kubo.And.The.Two.Strings.2016.720p.BluRay.DTS.x264-HiDt.part6.rar
  221.  
  222. ////////////////////////////////////////////////////////////////
  223. Mechanic: Resurrection 2016 720p BluRay x264 DD5.1-HDChina 4.0GB
  224. http://www.imdb.com/title/tt3522806/?ref_=tt_rec_tt
  225. Mechanic.Resurrection.2016.720p.BluRay.x264.DD5.1-HDChina
  226. SOURCE TYPE.....: BluRay 1080p AVC Atmos TrueHD7.1
  227. ViDEO BiTRATE...: x264 L4.1 High @ 5200 kbps
  228. FRAME RATE......: 23.976 fps
  229. AUDiO...........: English DD 5.1 @ 640 kbps
  230. RESOLUTiON......: 1280 x 536
  231. SUBTiTLE........: English,English SDH
  232. ENCODER ........: Medusa @ HDChina
  233. https://uploadgig.com/file/download/1f7f6919b25390c3/Mechanic.Resurrection.2016.720p.BluRay.x264.DD5.1-HDChina.part1.rar
  234. https://uploadgig.com/file/download/d9b60411C065d53d/Mechanic.Resurrection.2016.720p.BluRay.x264.DD5.1-HDChina.part2.rar
  235. https://uploadgig.com/file/download/bb9596352bd4125c/Mechanic.Resurrection.2016.720p.BluRay.x264.DD5.1-HDChina.part3.rar
  236. https://uploadgig.com/file/download/D43221aeBf692ccF/Mechanic.Resurrection.2016.720p.BluRay.x264.DD5.1-HDChina.part4.rar
  237. https://uploadgig.com/file/download/775753a4a7067e07/Mechanic.Resurrection.2016.720p.BluRay.x264.DD5.1-HDChina.part5.rar
  238.  
  239. ////////////////////////////////////////////////////////////////
  240. The.Secret.Life.of.Pets.2016.1080p.BluRay.x264-SPARKS  4.36 GB
  241. Video
  242. ID                                       : 1
  243. Format                                   : AVC
  244. Format/Info                              : Advanced Video Codec
  245. Format profile                           : High@L4.1
  246. Format settings, CABAC                   : Yes
  247. Format settings, ReFrames                : 4 frames
  248. Codec ID                                 : V_MPEG4/ISO/AVC
  249. Duration                                 : 1h 26mn
  250. Bit rate                                 : 6 596 Kbps
  251. Width                                    : 1 920 pixels
  252. Height                                   : 1 040 pixels
  253. Display aspect ratio                     : 1.85:1
  254. Frame rate mode                          : Constant
  255. Frame rate                               : 23.976 fps
  256. Color space                              : YUV
  257. Chroma subsampling                       : 4:2:0
  258. Bit depth                                : 8 bits
  259. Scan type                                : Progressive
  260. Bits/(Pixel*Frame)                       : 0.138
  261. Stream size                              : 3.98 GiB (91%)
  262. Writing library                          : x264 core 148 r2705 3f5ed56
  263. Encoding settings                        : cabac=1 / ref=4 / deblock=1:0:0 / analyse=0x3:0x133 / me=umh / subme=7 / psy=1 / psy_rd=1.00:0.00 / mixed_ref=1 / me_range=16 / chroma_me=1 / trellis=1 / 8x8dct=1 / cqm=0 / deadzone=21,11 / fast_pskip=0 / chroma_qp_offset=-2 / threads=32 / lookahead_threads=5 / sliced_threads=0 / nr=0 / decimate=1 / interlaced=0 / bluray_compat=0 / constrained_intra=0 / bframes=3 / b_pyramid=2 / b_adapt=1 / b_bias=0 / direct=1 / weightb=1 / open_gop=0 / weightp=2 / keyint=250 / keyint_min=23 / scenecut=40 / intra_refresh=0 / rc_lookahead=40 / rc=2pass / mbtree=1 / bitrate=6596 / ratetol=1.0 / qcomp=0.60 / qpmin=0 / qpmax=69 / qpstep=4 / cplxblur=20.0 / qblur=0.5 / ip_ratio=1.40 / aq=1:1.00
  264. Language                                 : English
  265. Default                                  : Yes
  266. Forced                                   : No
  267.  
  268. Audio
  269. ID                                       : 2
  270. Format                                   : AC-3
  271. Format/Info                              : Audio Coding 3
  272. Mode extension                           : CM (complete main)
  273. Format settings, Endianness              : Big
  274. Codec ID                                 : A_AC3
  275. Duration                                 : 1h 26mn
  276. Bit rate mode                            : Constant
  277. Bit rate                                 : 640 Kbps
  278. Channel(s)                               : 6 channels
  279. Channel positions                        : Front: L C R, Side: L R, LFE
  280. Sampling rate                            : 48.0 KHz
  281. Frame rate                               : 31.250 fps (1536 spf)
  282. Compression mode                         : Lossy
  283. Stream size                              : 396 MiB (9%)
  284. Language                                 : English
  285. Default                                  : Yes
  286. Forced                                   : No
  287. The.Secret.Life.of.Pets.2016.1080p.BluRay.x264-SPARKS
  288. https://uploadgig.com/file/download/7ed3ae77B7e67e5C/The.Secret.Life.of.Pets.2016.1080p.BluRay.x264-SPARKS.part1.rar
  289. https://uploadgig.com/file/download/ea0d1d33cB5Ab54B/The.Secret.Life.of.Pets.2016.1080p.BluRay.x264-SPARKS.part2.rar
  290. https://uploadgig.com/file/download/2d6DeB882861b47E/The.Secret.Life.of.Pets.2016.1080p.BluRay.x264-SPARKS.part3.rar
  291. https://uploadgig.com/file/download/4A18669eB87537a3/The.Secret.Life.of.Pets.2016.1080p.BluRay.x264-SPARKS.part4.rar
  292. https://uploadgig.com/file/download/EcBD3f9A1a2d6faE/The.Secret.Life.of.Pets.2016.1080p.BluRay.x264-SPARKS.part5.rar
  293. https://uploadgig.com/file/download/2712Dab311171ba0/The.Secret.Life.of.Pets.2016.1080p.BluRay.x264-SPARKS.part6.rar
  294.  
  295. ////////////////////////////////////////////////////////////////
  296. The.Secret.Life.of.Pets.2016.720p.BluRay.x264-SPARKS 2.18 GB
  297. Video
  298. ID                                       : 1
  299. Format                                   : AVC
  300. Format/Info                              : Advanced Video Codec
  301. Format profile                           : High@L4.1
  302. Format settings, CABAC                   : Yes
  303. Format settings, ReFrames                : 5 frames
  304. Codec ID                                 : V_MPEG4/ISO/AVC
  305. Duration                                 : 1h 26mn
  306. Bit rate                                 : 2 974 Kbps
  307. Width                                    : 1 280 pixels
  308. Height                                   : 688 pixels
  309. Display aspect ratio                     : 1.85:1
  310. Frame rate mode                          : Constant
  311. Frame rate                               : 23.976 fps
  312. Color space                              : YUV
  313. Chroma subsampling                       : 4:2:0
  314. Bit depth                                : 8 bits
  315. Scan type                                : Progressive
  316. Bits/(Pixel*Frame)                       : 0.141
  317. Stream size                              : 1.80 GiB (82%)
  318. Writing library                          : x264 core 148 r2705 3f5ed56
  319. Encoding settings                        : cabac=1 / ref=5 / deblock=1:0:0 / analyse=0x3:0x133 / me=umh / subme=7 / psy=1 / psy_rd=1.00:0.00 / mixed_ref=1 / me_range=16 / chroma_me=1 / trellis=1 / 8x8dct=1 / cqm=0 / deadzone=21,11 / fast_pskip=0 / chroma_qp_offset=-2 / threads=12 / lookahead_threads=2 / sliced_threads=0 / nr=0 / decimate=1 / interlaced=0 / bluray_compat=0 / constrained_intra=0 / bframes=3 / b_pyramid=2 / b_adapt=1 / b_bias=0 / direct=1 / weightb=1 / open_gop=0 / weightp=2 / keyint=250 / keyint_min=23 / scenecut=40 / intra_refresh=0 / rc_lookahead=40 / rc=2pass / mbtree=1 / bitrate=2974 / ratetol=1.0 / qcomp=0.60 / qpmin=0 / qpmax=69 / qpstep=4 / cplxblur=20.0 / qblur=0.5 / ip_ratio=1.40 / aq=1:1.00
  320. Language                                 : English
  321. Default                                  : Yes
  322. Forced                                   : No
  323.  
  324. Audio
  325. ID                                       : 2
  326. Format                                   : AC-3
  327. Format/Info                              : Audio Coding 3
  328. Mode extension                           : CM (complete main)
  329. Format settings, Endianness              : Big
  330. Codec ID                                 : A_AC3
  331. Duration                                 : 1h 26mn
  332. Bit rate mode                            : Constant
  333. Bit rate                                 : 640 Kbps
  334. Channel(s)                               : 6 channels
  335. Channel positions                        : Front: L C R, Side: L R, LFE
  336. Sampling rate                            : 48.0 KHz
  337. Frame rate                               : 31.250 fps (1536 spf)
  338. Compression mode                         : Lossy
  339. Stream size                              : 396 MiB (18%)
  340. Language                                 : English
  341. Default                                  : Yes
  342. Forced                                   : No
  343. The.Secret.Life.of.Pets.2016.720p.BluRay.x264-SPARKS
  344. https://uploadgig.com/file/download/beae1412b14c97c6/The.Secret.Life.of.Pets.2016.720p.BluRay.x264-SPARKS.part1.rar
  345. https://uploadgig.com/file/download/c22ae6d436e1EAc3/The.Secret.Life.of.Pets.2016.720p.BluRay.x264-SPARKS.part2.rar
  346. https://uploadgig.com/file/download/5ED1D3b9e6cd68Fe/The.Secret.Life.of.Pets.2016.720p.BluRay.x264-SPARKS.part3.rar
  347. /////////////////////////////////////////////////////////////////////////////
  348. Grey's Anatomy -  TV Series
  349. http://pastebin.com/cEkKxLXZ
  350.  
  351. ////////////////////////////////////////////////////////////////
  352. Sully 2016 720p BluRay DD5.1 x264-SPARKS 4.4GB
  353. http://www.imdb.com/title/tt3263904/?ref_=fn_al_tt_1
  354. Filename.......: Sully.2016.720p.BluRay.x264-SPARKS
  355. Container......: Matroska
  356. Duration.......: 1h 35mn 50s 688ms
  357. Size...........: 4.37 GiB
  358. Codec..........: AVC High@L4.1 8 bits
  359. Type...........: Progressive
  360. Resolution.....: 1280x536
  361. Aspect ratio...: 2.388:1
  362. Bit rate.......: 5 887 Kbps
  363. Frame rate.....: 23.976 fps
  364. Format.........: AC-3
  365. Channels.......: 6 channels
  366. Bit rate.......: 640 Kbps
  367. Language.......: English
  368. https://uploadgig.com/file/download/4548c858daC96FC4/Sully.2016.720p.BluRay.x264-SPARKS.part1.rar
  369. https://uploadgig.com/file/download/9D1f9c60b757E8a0/Sully.2016.720p.BluRay.x264-SPARKS.part2.rar
  370. https://uploadgig.com/file/download/c7dD7F2dFe8a62ef/Sully.2016.720p.BluRay.x264-SPARKS.part3.rar
  371. https://uploadgig.com/file/download/3e6059ed7b5D4ea8/Sully.2016.720p.BluRay.x264-SPARKS.part4.rar
  372. https://uploadgig.com/file/download/C51eDf0E8fbbbf4a/Sully.2016.720p.BluRay.x264-SPARKS.part5.rar
  373. https://uploadgig.com/file/download/3ffF83d26fd1d0Aa/Sully.2016.720p.BluRay.x264-SPARKS.part6.rar
  374.  
  375. //////////////////////////////////////////////
  376. Suicide Squad 2016 Extended 720p BluRay DD5.1 x264-SPARKS 5.5GB
  377. http://www.imdb.com/title/tt1386697/?ref_=nv_sr_1
  378. Release.Date: 29.11.2016
  379. Video.......: X264 5173Kbps
  380. Frame.Rate..: 23.976
  381. Resolution..: 1280x536
  382. Audio.......: AC-3 640Kbps 6ch
  383. Language....: English
  384. Length......: 2h 14mn
  385. Source......: Retail BluRay
  386. Size........: 5596MB
  387. Subtitles...:  English
  388. https://uploadgig.com/file/download/8d79f8488338acEc/Suicide.Squad.2016.EXTENDED.720p.BluRay.x264-SPARKS.part1.rar
  389. https://uploadgig.com/file/download/2c8522b03a01a99d/Suicide.Squad.2016.EXTENDED.720p.BluRay.x264-SPARKS.part2.rar
  390. https://uploadgig.com/file/download/f9e14c740dC001DB/Suicide.Squad.2016.EXTENDED.720p.BluRay.x264-SPARKS.part3.rar
  391. https://uploadgig.com/file/download/1494c2a666645Dd5/Suicide.Squad.2016.EXTENDED.720p.BluRay.x264-SPARKS.part4.rar
  392. https://uploadgig.com/file/download/48C67e003a071082/Suicide.Squad.2016.EXTENDED.720p.BluRay.x264-SPARKS.part5.rar
  393. https://uploadgig.com/file/download/21fcc292BD416406/Suicide.Squad.2016.EXTENDED.720p.BluRay.x264-SPARKS.part6.rar
  394. https://uploadgig.com/file/download/e2Bb42e21e0dbce4/Suicide.Squad.2016.EXTENDED.720p.BluRay.x264-SPARKS.part7.rar
  395.  
  396. ////////////////////////////////////////////////////
  397. Ben-Hur 2016 720p BluRay DTS x264-HiDt 6.11GB
  398. http://www.imdb.com/title/tt2638144/?ref_=nv_sr_1
  399. RELEASE NAME..: Ben.Hur.2016.720p.BluRay.DTS.x264-HiDt
  400. ENCODED DATE..: UTC 2016-11-26 21:09:52
  401. RELEASE SIZE..: 6.11 GiB
  402. RUNTIME.......: 2h 4mn
  403. VIDEO CODEC...: x264, High@L4.1
  404. FRAMERATE.....: 23.976 fps
  405. BITRATE.......: 5 365 Kbps
  406. RESOLUTION....: 1280x534
  407. AUDIO.........: English DTS 5.1@1 510 Kbps
  408. CHAPTERS......: Yes
  409. SUBTITLES.....: English, English SDH.
  410. SOURCE........: Ben-Hur 2016 1080p Blu-ray AVC DTS-HD MA 7.1
  411. ENCODER.......: HiDt
  412. https://uploadgig.com/file/download/0e407B7DA8abcaD7/Ben.Hur.2016.720p.BluRay.DTS.x264-HiDt.part1.rar
  413. https://uploadgig.com/file/download/8c1736e4E759590c/Ben.Hur.2016.720p.BluRay.DTS.x264-HiDt.part2.rar
  414. https://uploadgig.com/file/download/A3bf0d1eFa2f5720/Ben.Hur.2016.720p.BluRay.DTS.x264-HiDt.part3.rar
  415. https://uploadgig.com/file/download/80817879faFf7d8e/Ben.Hur.2016.720p.BluRay.DTS.x264-HiDt.part4.rar
  416. https://uploadgig.com/file/download/Aee97dc38eC3e5c8/Ben.Hur.2016.720p.BluRay.DTS.x264-HiDt.part5.rar
  417. https://uploadgig.com/file/download/3B5d5c7Cd9a35Ceb/Ben.Hur.2016.720p.BluRay.DTS.x264-HiDt.part6.rar
  418. https://uploadgig.com/file/download/d737Befda68DfF11/Ben.Hur.2016.720p.BluRay.DTS.x264-HiDt.part7.rar
  419. https://uploadgig.com/file/download/1f379038C1a23d2f/Ben.Hur.2016.720p.BluRay.DTS.x264-HiDt.part8.rar
  420.  
  421. //////////////////////////////////////////////////
  422. Jason Bourne 2016 720p BluRay DTS x264-SPARKS 5.5GB
  423. http://www.imdb.com/title/tt4196776/?ref_=nv_sr_1
  424. [Video Bitrate]:.............: 6349 kbps
  425. [Duration]:.............: 2h 3mn
  426. [Video Codec]:.............: AVC
  427. [Resolution]:.............: 1280x536 px
  428. [Aspect Ratio]:.............: 2.40:1
  429. [Audio Codec]:.............: DTS
  430. [Audio Bitrate]:.............: 1509 kbps
  431. [Audio Channels]:.............: 5.1ch
  432. [Audio Language]:.............: English
  433. https://uploadgig.com/file/download/12b93816e993F3c7/Jason.Bourne.2016.720p.BluRay.x264-SPARKS.part1.rar
  434. https://uploadgig.com/file/download/33448ef6cF41b291/Jason.Bourne.2016.720p.BluRay.x264-SPARKS.part2.rar
  435. https://uploadgig.com/file/download/469b635bA791dc8f/Jason.Bourne.2016.720p.BluRay.x264-SPARKS.part3.rar
  436. https://uploadgig.com/file/download/c1f0a2363106a1AA/Jason.Bourne.2016.720p.BluRay.x264-SPARKS.part4.rar
  437. https://uploadgig.com/file/download/A7E2d003e3655371/Jason.Bourne.2016.720p.BluRay.x264-SPARKS.part5.rar
  438. https://uploadgig.com/file/download/c9f39f5b0289B67a/Jason.Bourne.2016.720p.BluRay.x264-SPARKS.part6.rar
  439. https://uploadgig.com/file/download/622990e4a3028434/Jason.Bourne.2016.720p.BluRay.x264-SPARKS.part7.rar
RAW Paste Data
Top