Want more features on Pastebin? Sign Up, it's FREE!
Guest

Untitled

By: a guest on Jul 3rd, 2013  |  syntax: None  |  size: 20.05 KB  |  views: 52  |  expires: Never
download  |  raw  |  embed  |  report abuse  |  print
Text below is selected. Please press Ctrl+C to copy to your clipboard. (⌘+C on Mac)
  1. WARN  2013-07-03 20:45:10.356 [pool-12-thread-1] Can't create thumbnail for /Users/skuum/Movies/My5/-] Life of Pi  [2012] SweSub.720p.Web-DL.x264-MR.Stiffy/Life.of.Pi.2012.SWESUB.720p.WEB-DL.x264-Mr.Stiffy.mkv: No suitable ImageReader found for /Users/skuum/Movies/My5/-] Life of Pi  [2012] SweSub.720p.Web-DL.x264-MR.Stiffy/Life.of.Pi.2012.SWESUB.720p.WEB-DL.x264-Mr.Stiffy.mkv.
  2. DEBUG 2013-07-03 20:45:10.357 [pool-12-thread-1] Starting "/Applications/PS3 Media Server.app/Contents/Resources/Java/osx/ffmpeg" -ss 1 -i "/Users/skuum/Movies/My5/-] Life of Pi  [2012] SweSub.720p.Web-DL.x264-MR.Stiffy/Life.of.Pi.2012.SWESUB.720p.WEB-DL.x264-Mr.Stiffy.mkv" -an -an -s 320x180 -vframes 1 -f image2 pipe:
  3. DEBUG 2013-07-03 20:45:10.370 [pool-12-thread-1] Attaching thread: ffmpeg-3
  4. DEBUG 2013-07-03 20:45:10.371 [pool-12-thread-1] Unix process ID (/Applications/PS3 Media Server.app/Contents/Resources/Java/osx/ffmpeg): 806
  5. DEBUG 2013-07-03 20:45:10.375 [Thread-20] ffmpeg version 1.1.2 (PMS3) for PS3 Media Server Copyright (c) 2000-2013 the FFmpeg developers
  6. DEBUG 2013-07-03 20:45:10.375 [Thread-20]   built on Feb 10 2013 14:02:18 with llvm-gcc 4.2.1 (LLVM build 2336.11.00)
  7. DEBUG 2013-07-03 20:45:10.375 [Thread-20]   configuration: http://git.io/ZHdseg
  8. DEBUG 2013-07-03 20:45:10.386 [Thread-20] Input #0, matroska,webm, from '/Users/skuum/Movies/My5/-] Life of Pi  [2012] SweSub.720p.Web-DL.x264-MR.Stiffy/Life.of.Pi.2012.SWESUB.720p.WEB-DL.x264-Mr.Stiffy.mkv':
  9. DEBUG 2013-07-03 20:45:10.386 [Thread-20]   Metadata:
  10. DEBUG 2013-07-03 20:45:10.386 [Thread-20]     title           : ripped by HD4FUN.COM
  11. DEBUG 2013-07-03 20:45:10.386 [Thread-20]     creation_time   : 2013-02-21 17:28:49
  12. DEBUG 2013-07-03 20:45:10.386 [Thread-20]   Duration: 02:07:22.69, start: 0.000000, bitrate: 4358 kb/s
  13. DEBUG 2013-07-03 20:45:10.386 [Thread-20]     Chapter #0.0: start 0.000000, end 237.000000
  14. DEBUG 2013-07-03 20:45:10.386 [Thread-20]     Metadata:
  15. DEBUG 2013-07-03 20:45:10.386 [Thread-20]       title           : Chapter 1
  16. DEBUG 2013-07-03 20:45:10.386 [Thread-20]     Chapter #0.1: start 237.000000, end 673.000000
  17. DEBUG 2013-07-03 20:45:10.386 [Thread-20]     Metadata:
  18. DEBUG 2013-07-03 20:45:10.386 [Thread-20]       title           : Chapter 2
  19. DEBUG 2013-07-03 20:45:10.386 [Thread-20]     Chapter #0.2: start 673.000000, end 923.000000
  20. DEBUG 2013-07-03 20:45:10.386 [Thread-20]     Metadata:
  21. DEBUG 2013-07-03 20:45:10.386 [Thread-20]       title           : Chapter 3
  22. DEBUG 2013-07-03 20:45:10.386 [Thread-20]     Chapter #0.3: start 923.000000, end 1289.000000
  23. DEBUG 2013-07-03 20:45:10.386 [Thread-20]     Metadata:
  24. DEBUG 2013-07-03 20:45:10.386 [Thread-20]       title           : Chapter 4
  25. DEBUG 2013-07-03 20:45:10.386 [Thread-20]     Chapter #0.4: start 1289.000000, end 1544.000000
  26. DEBUG 2013-07-03 20:45:10.386 [Thread-20]     Metadata:
  27. DEBUG 2013-07-03 20:45:10.386 [Thread-20]       title           : Chapter 5
  28. DEBUG 2013-07-03 20:45:10.386 [Thread-20]     Chapter #0.5: start 1544.000000, end 1786.000000
  29. DEBUG 2013-07-03 20:45:10.387 [Thread-20]     Metadata:
  30. DEBUG 2013-07-03 20:45:10.387 [Thread-20]       title           : Chapter 6
  31. DEBUG 2013-07-03 20:45:10.387 [Thread-20]     Chapter #0.6: start 1786.000000, end 1891.000000
  32. DEBUG 2013-07-03 20:45:10.387 [Thread-20]     Metadata:
  33. DEBUG 2013-07-03 20:45:10.387 [Thread-20]       title           : Chapter 7
  34. DEBUG 2013-07-03 20:45:10.387 [Thread-20]     Chapter #0.7: start 1891.000000, end 2134.000000
  35. DEBUG 2013-07-03 20:45:10.387 [Thread-20]     Metadata:
  36. DEBUG 2013-07-03 20:45:10.387 [Thread-20]       title           : Chapter 8
  37. DEBUG 2013-07-03 20:45:10.387 [Thread-20]     Chapter #0.8: start 2134.000000, end 2722.000000
  38. DEBUG 2013-07-03 20:45:10.387 [Thread-20]     Metadata:
  39. DEBUG 2013-07-03 20:45:10.387 [Thread-20]       title           : Chapter 9
  40. DEBUG 2013-07-03 20:45:10.387 [Thread-20]     Chapter #0.9: start 2722.000000, end 3021.000000
  41. DEBUG 2013-07-03 20:45:10.387 [Thread-20]     Metadata:
  42. DEBUG 2013-07-03 20:45:10.387 [Thread-20]       title           : Chapter 10
  43. DEBUG 2013-07-03 20:45:10.387 [Thread-20]     Chapter #0.10: start 3021.000000, end 3253.000000
  44. DEBUG 2013-07-03 20:45:10.387 [Thread-20]     Metadata:
  45. DEBUG 2013-07-03 20:45:10.387 [Thread-20]       title           : Chapter 11
  46. DEBUG 2013-07-03 20:45:10.387 [Thread-20]     Chapter #0.11: start 3253.000000, end 3437.000000
  47. DEBUG 2013-07-03 20:45:10.387 [Thread-20]     Metadata:
  48. DEBUG 2013-07-03 20:45:10.387 [Thread-20]       title           : Chapter 12
  49. DEBUG 2013-07-03 20:45:10.387 [Thread-20]     Chapter #0.12: start 3437.000000, end 3607.000000
  50. DEBUG 2013-07-03 20:45:10.387 [Thread-20]     Metadata:
  51. DEBUG 2013-07-03 20:45:10.387 [Thread-20]       title           : Chapter 13
  52. DEBUG 2013-07-03 20:45:10.387 [Thread-20]     Chapter #0.13: start 3607.000000, end 3852.000000
  53. DEBUG 2013-07-03 20:45:10.387 [Thread-20]     Metadata:
  54. DEBUG 2013-07-03 20:45:10.387 [Thread-20]       title           : Chapter 14
  55. DEBUG 2013-07-03 20:45:10.387 [Thread-20]     Chapter #0.14: start 3852.000000, end 4171.000000
  56. DEBUG 2013-07-03 20:45:10.387 [Thread-20]     Metadata:
  57. DEBUG 2013-07-03 20:45:10.387 [Thread-20]       title           : Chapter 15
  58. DEBUG 2013-07-03 20:45:10.387 [Thread-20]     Chapter #0.15: start 4171.000000, end 4308.000000
  59. DEBUG 2013-07-03 20:45:10.387 [Thread-20]     Metadata:
  60. DEBUG 2013-07-03 20:45:10.388 [Thread-20]       title           : Chapter 16
  61. DEBUG 2013-07-03 20:45:10.388 [Thread-20]     Chapter #0.16: start 4308.000000, end 4412.000000
  62. DEBUG 2013-07-03 20:45:10.388 [Thread-20]     Metadata:
  63. DEBUG 2013-07-03 20:45:10.388 [Thread-20]       title           : Chapter 17
  64. DEBUG 2013-07-03 20:45:10.388 [Thread-20]     Chapter #0.17: start 4412.000000, end 4607.000000
  65. DEBUG 2013-07-03 20:45:10.388 [Thread-20]     Metadata:
  66. DEBUG 2013-07-03 20:45:10.388 [Thread-20]       title           : Chapter 18
  67. DEBUG 2013-07-03 20:45:10.388 [Thread-20]     Chapter #0.18: start 4607.000000, end 4891.000000
  68. DEBUG 2013-07-03 20:45:10.388 [Thread-20]     Metadata:
  69. DEBUG 2013-07-03 20:45:10.388 [Thread-20]       title           : Chapter 19
  70. DEBUG 2013-07-03 20:45:10.388 [Thread-20]     Chapter #0.19: start 4891.000000, end 4986.000000
  71. DEBUG 2013-07-03 20:45:10.388 [Thread-20]     Metadata:
  72. DEBUG 2013-07-03 20:45:10.388 [Thread-20]       title           : Chapter 20
  73. DEBUG 2013-07-03 20:45:10.388 [Thread-20]     Chapter #0.20: start 4986.000000, end 5190.000000
  74. DEBUG 2013-07-03 20:45:10.388 [Thread-20]     Metadata:
  75. DEBUG 2013-07-03 20:45:10.388 [Thread-20]       title           : Chapter 21
  76. DEBUG 2013-07-03 20:45:10.388 [Thread-20]     Chapter #0.21: start 5190.000000, end 5479.000000
  77. DEBUG 2013-07-03 20:45:10.388 [Thread-20]     Metadata:
  78. DEBUG 2013-07-03 20:45:10.388 [Thread-20]       title           : Chapter 22
  79. DEBUG 2013-07-03 20:45:10.388 [Thread-20]     Chapter #0.22: start 5479.000000, end 5651.000000
  80. DEBUG 2013-07-03 20:45:10.388 [Thread-20]     Metadata:
  81. DEBUG 2013-07-03 20:45:10.388 [Thread-20]       title           : Chapter 23
  82. DEBUG 2013-07-03 20:45:10.388 [Thread-20]     Chapter #0.23: start 5651.000000, end 6222.000000
  83. DEBUG 2013-07-03 20:45:10.388 [Thread-20]     Metadata:
  84. DEBUG 2013-07-03 20:45:10.388 [Thread-20]       title           : Chapter 24
  85. DEBUG 2013-07-03 20:45:10.388 [Thread-20]     Chapter #0.24: start 6222.000000, end 6458.000000
  86. DEBUG 2013-07-03 20:45:10.388 [Thread-20]     Metadata:
  87. DEBUG 2013-07-03 20:45:10.388 [Thread-20]       title           : Chapter 25
  88. DEBUG 2013-07-03 20:45:10.389 [Thread-20]     Chapter #0.25: start 6458.000000, end 6920.000000
  89. DEBUG 2013-07-03 20:45:10.389 [Thread-20]     Metadata:
  90. DEBUG 2013-07-03 20:45:10.389 [Thread-20]       title           : Chapter 26
  91. DEBUG 2013-07-03 20:45:10.389 [Thread-20]     Chapter #0.26: start 6920.000000, end 7153.000000
  92. DEBUG 2013-07-03 20:45:10.389 [Thread-20]     Metadata:
  93. DEBUG 2013-07-03 20:45:10.389 [Thread-20]       title           : Chapter 27
  94. DEBUG 2013-07-03 20:45:10.389 [Thread-20]     Chapter #0.27: start 7153.000000, end 7642.685000
  95. DEBUG 2013-07-03 20:45:10.389 [Thread-20]     Metadata:
  96. DEBUG 2013-07-03 20:45:10.389 [Thread-20]       title           : Chapter 28
  97. DEBUG 2013-07-03 20:45:10.389 [Thread-20]     Stream #0:0(eng): Video: h264 (High), yuv420p, 1280x688 [SAR 1:1 DAR 80:43], 23.98 fps, 23.98 tbr, 1k tbn, 2k tbc (default)
  98. DEBUG 2013-07-03 20:45:10.389 [Thread-20]     Metadata:
  99. DEBUG 2013-07-03 20:45:10.389 [Thread-20]       title           : ripped by HD4FUN.COM
  100. DEBUG 2013-07-03 20:45:10.389 [Thread-20]     Stream #0:1(eng): Audio: ac3, 48000 Hz, 5.1(side), fltp, 384 kb/s (default)
  101. DEBUG 2013-07-03 20:45:10.389 [Thread-20]     Stream #0:2(swe): Subtitle: subrip (default)
  102. DEBUG 2013-07-03 20:45:10.391 [Thread-20] Output #0, image2, to 'pipe:':
  103. DEBUG 2013-07-03 20:45:10.391 [Thread-20]   Metadata:
  104. DEBUG 2013-07-03 20:45:10.391 [Thread-20]     title           : ripped by HD4FUN.COM
  105. DEBUG 2013-07-03 20:45:10.391 [Thread-20]     encoder         : Lavf54.59.106
  106. DEBUG 2013-07-03 20:45:10.392 [Thread-20]     Chapter #0.0: start 0.000000, end 236.000000
  107. DEBUG 2013-07-03 20:45:10.392 [Thread-20]     Metadata:
  108. DEBUG 2013-07-03 20:45:10.392 [Thread-20]       title           : Chapter 1
  109. DEBUG 2013-07-03 20:45:10.392 [Thread-20]     Chapter #0.1: start 236.000000, end 672.000000
  110. DEBUG 2013-07-03 20:45:10.392 [Thread-20]     Metadata:
  111. DEBUG 2013-07-03 20:45:10.392 [Thread-20]       title           : Chapter 2
  112. DEBUG 2013-07-03 20:45:10.392 [Thread-20]     Chapter #0.2: start 672.000000, end 922.000000
  113. DEBUG 2013-07-03 20:45:10.392 [Thread-20]     Metadata:
  114. DEBUG 2013-07-03 20:45:10.392 [Thread-20]       title           : Chapter 3
  115. DEBUG 2013-07-03 20:45:10.392 [Thread-20]     Chapter #0.3: start 922.000000, end 1288.000000
  116. DEBUG 2013-07-03 20:45:10.392 [Thread-20]     Metadata:
  117. DEBUG 2013-07-03 20:45:10.392 [Thread-20]       title           : Chapter 4
  118. DEBUG 2013-07-03 20:45:10.392 [Thread-20]     Chapter #0.4: start 1288.000000, end 1543.000000
  119. DEBUG 2013-07-03 20:45:10.392 [Thread-20]     Metadata:
  120. DEBUG 2013-07-03 20:45:10.392 [Thread-20]       title           : Chapter 5
  121. DEBUG 2013-07-03 20:45:10.392 [Thread-20]     Chapter #0.5: start 1543.000000, end 1785.000000
  122. DEBUG 2013-07-03 20:45:10.392 [Thread-20]     Metadata:
  123. DEBUG 2013-07-03 20:45:10.392 [Thread-20]       title           : Chapter 6
  124. DEBUG 2013-07-03 20:45:10.392 [Thread-20]     Chapter #0.6: start 1785.000000, end 1890.000000
  125. DEBUG 2013-07-03 20:45:10.392 [Thread-20]     Metadata:
  126. DEBUG 2013-07-03 20:45:10.392 [Thread-20]       title           : Chapter 7
  127. DEBUG 2013-07-03 20:45:10.392 [Thread-20]     Chapter #0.7: start 1890.000000, end 2133.000000
  128. DEBUG 2013-07-03 20:45:10.392 [Thread-20]     Metadata:
  129. DEBUG 2013-07-03 20:45:10.392 [Thread-20]       title           : Chapter 8
  130. DEBUG 2013-07-03 20:45:10.392 [Thread-20]     Chapter #0.8: start 2133.000000, end 2721.000000
  131. DEBUG 2013-07-03 20:45:10.392 [Thread-20]     Metadata:
  132. DEBUG 2013-07-03 20:45:10.392 [Thread-20]       title           : Chapter 9
  133. DEBUG 2013-07-03 20:45:10.392 [Thread-20]     Chapter #0.9: start 2721.000000, end 3020.000000
  134. DEBUG 2013-07-03 20:45:10.392 [Thread-20]     Metadata:
  135. DEBUG 2013-07-03 20:45:10.393 [Thread-20]       title           : Chapter 10
  136. DEBUG 2013-07-03 20:45:10.393 [Thread-20]     Chapter #0.10: start 3020.000000, end 3252.000000
  137. DEBUG 2013-07-03 20:45:10.393 [Thread-20]     Metadata:
  138. DEBUG 2013-07-03 20:45:10.393 [Thread-20]       title           : Chapter 11
  139. DEBUG 2013-07-03 20:45:10.393 [Thread-20]     Chapter #0.11: start 3252.000000, end 3436.000000
  140. DEBUG 2013-07-03 20:45:10.393 [Thread-20]     Metadata:
  141. DEBUG 2013-07-03 20:45:10.393 [Thread-20]       title           : Chapter 12
  142. DEBUG 2013-07-03 20:45:10.393 [Thread-20]     Chapter #0.12: start 3436.000000, end 3606.000000
  143. DEBUG 2013-07-03 20:45:10.393 [Thread-20]     Metadata:
  144. DEBUG 2013-07-03 20:45:10.393 [Thread-20]       title           : Chapter 13
  145. DEBUG 2013-07-03 20:45:10.393 [Thread-20]     Chapter #0.13: start 3606.000000, end 3851.000000
  146. DEBUG 2013-07-03 20:45:10.393 [Thread-20]     Metadata:
  147. DEBUG 2013-07-03 20:45:10.393 [Thread-20]       title           : Chapter 14
  148. DEBUG 2013-07-03 20:45:10.393 [Thread-20]     Chapter #0.14: start 3851.000000, end 4170.000000
  149. DEBUG 2013-07-03 20:45:10.393 [Thread-20]     Metadata:
  150. DEBUG 2013-07-03 20:45:10.393 [Thread-20]       title           : Chapter 15
  151. DEBUG 2013-07-03 20:45:10.393 [Thread-20]     Chapter #0.15: start 4170.000000, end 4307.000000
  152. DEBUG 2013-07-03 20:45:10.393 [Thread-20]     Metadata:
  153. DEBUG 2013-07-03 20:45:10.393 [Thread-20]       title           : Chapter 16
  154. DEBUG 2013-07-03 20:45:10.393 [Thread-20]     Chapter #0.16: start 4307.000000, end 4411.000000
  155. DEBUG 2013-07-03 20:45:10.393 [Thread-20]     Metadata:
  156. DEBUG 2013-07-03 20:45:10.393 [Thread-20]       title           : Chapter 17
  157. DEBUG 2013-07-03 20:45:10.393 [Thread-20]     Chapter #0.17: start 4411.000000, end 4606.000000
  158. DEBUG 2013-07-03 20:45:10.393 [Thread-20]     Metadata:
  159. DEBUG 2013-07-03 20:45:10.393 [Thread-20]       title           : Chapter 18
  160. DEBUG 2013-07-03 20:45:10.393 [Thread-20]     Chapter #0.18: start 4606.000000, end 4890.000000
  161. DEBUG 2013-07-03 20:45:10.393 [Thread-20]     Metadata:
  162. DEBUG 2013-07-03 20:45:10.393 [Thread-20]       title           : Chapter 19
  163. DEBUG 2013-07-03 20:45:10.393 [Thread-20]     Chapter #0.19: start 4890.000000, end 4985.000000
  164. DEBUG 2013-07-03 20:45:10.394 [Thread-20]     Metadata:
  165. DEBUG 2013-07-03 20:45:10.394 [Thread-20]       title           : Chapter 20
  166. DEBUG 2013-07-03 20:45:10.394 [Thread-20]     Chapter #0.20: start 4985.000000, end 5189.000000
  167. DEBUG 2013-07-03 20:45:10.394 [Thread-20]     Metadata:
  168. DEBUG 2013-07-03 20:45:10.394 [Thread-20]       title           : Chapter 21
  169. DEBUG 2013-07-03 20:45:10.394 [Thread-20]     Chapter #0.21: start 5189.000000, end 5478.000000
  170. DEBUG 2013-07-03 20:45:10.394 [Thread-20]     Metadata:
  171. DEBUG 2013-07-03 20:45:10.394 [Thread-20]       title           : Chapter 22
  172. DEBUG 2013-07-03 20:45:10.394 [Thread-20]     Chapter #0.22: start 5478.000000, end 5650.000000
  173. DEBUG 2013-07-03 20:45:10.394 [Thread-20]     Metadata:
  174. DEBUG 2013-07-03 20:45:10.394 [Thread-20]       title           : Chapter 23
  175. DEBUG 2013-07-03 20:45:10.394 [Thread-20]     Chapter #0.23: start 5650.000000, end 6221.000000
  176. DEBUG 2013-07-03 20:45:10.394 [Thread-20]     Metadata:
  177. DEBUG 2013-07-03 20:45:10.394 [Thread-20]       title           : Chapter 24
  178. DEBUG 2013-07-03 20:45:10.394 [Thread-20]     Chapter #0.24: start 6221.000000, end 6457.000000
  179. DEBUG 2013-07-03 20:45:10.394 [Thread-20]     Metadata:
  180. DEBUG 2013-07-03 20:45:10.394 [Thread-20]       title           : Chapter 25
  181. DEBUG 2013-07-03 20:45:10.394 [Thread-20]     Chapter #0.25: start 6457.000000, end 6919.000000
  182. DEBUG 2013-07-03 20:45:10.394 [Thread-20]     Metadata:
  183. DEBUG 2013-07-03 20:45:10.394 [Thread-20]       title           : Chapter 26
  184. DEBUG 2013-07-03 20:45:10.394 [Thread-20]     Chapter #0.26: start 6919.000000, end 7152.000000
  185. DEBUG 2013-07-03 20:45:10.394 [Thread-20]     Metadata:
  186. DEBUG 2013-07-03 20:45:10.394 [Thread-20]       title           : Chapter 27
  187. DEBUG 2013-07-03 20:45:10.394 [Thread-20]     Chapter #0.27: start 7152.000000, end 7641.685000
  188. DEBUG 2013-07-03 20:45:10.394 [Thread-20]     Metadata:
  189. DEBUG 2013-07-03 20:45:10.394 [Thread-20]       title           : Chapter 28
  190. DEBUG 2013-07-03 20:45:10.395 [Thread-20]     Stream #0:0(eng): Video: mjpeg, yuvj420p, 320x180 [SAR 45:43 DAR 80:43], q=2-31, 200 kb/s, 90k tbn, 23.98 tbc (default)
  191. DEBUG 2013-07-03 20:45:10.395 [Thread-20]     Metadata:
  192. DEBUG 2013-07-03 20:45:10.395 [Thread-20]       title           : ripped by HD4FUN.COM
  193. DEBUG 2013-07-03 20:45:10.395 [Thread-20] Stream mapping:
  194. DEBUG 2013-07-03 20:45:10.395 [Thread-20]   Stream #0:0 -> #0:0 (h264 -> mjpeg)
  195. DEBUG 2013-07-03 20:45:10.395 [Thread-20] Press [q] to stop, [?] for help
  196. DEBUG 2013-07-03 20:45:10.452 [Thread-20] frame=    1 fps=0.0 q=0.0 Lsize=N/A time=00:00:00.04 bitrate=N/A dup=0 drop=22    
  197. DEBUG 2013-07-03 20:45:10.452 [Thread-20] video:1kB audio:0kB subtitle:0 global headers:0kB muxing overhead -101.443570%
  198. DEBUG 2013-07-03 20:45:10.459 [pool-12-thread-1] Could not parse frame rate "2k"
  199. DEBUG 2013-07-03 20:45:12.713 [pool-14-thread-1] Duplicate Life.of.Pi.2012.SWESUB.720p.WEB-DL.x264-Mr.Stiffy.mkv for direct streaming to renderer: Samsung AllShare
  200. DEBUG 2013-07-03 20:45:12.962 [Buffered IO End Checker] Stopping Unix process 806: ffmpeg-3
  201. DEBUG 2013-07-03 20:45:17.298 [UPNP-AliveMessageSender] Sending ALIVE...
  202. INFO  2013-07-03 20:45:47.931 [New I/O server worker #1-2] Starting transcode/remux of Life.of.Pi.2012.SWESUB.720p.WEB-DL.x264-Mr.Stiffy.mkv
  203. DEBUG 2013-07-03 20:45:47.972 [mencoder-4] Starting "/Applications/PS3 Media Server.app/Contents/Resources/Java/osx/mencoder" -ss 0 "/Users/skuum/Movies/My5/-] Life of Pi  [2012] SweSub.720p.Web-DL.x264-MR.Stiffy/Life.of.Pi.2012.SWESUB.720p.WEB-DL.x264-Mr.Stiffy.mkv" -msglevel statusline=2 -oac copy -of mpeg -mpegopts format=mpeg2:muxrate=500000:vbuf_size=1194:abuf_size=64 -ovc lavc -channels 6 -lavdopts debug=0:threads=8 -lavcopts autoaspect=1:vcodec=mpeg2video:acodec=ac3:abitrate=640:threads=8:keyint=5:vqscale=1:vqmin=2:vrc_maxrate=11000:vrc_buf_size=1835 -ass -font /System/Library/Frameworks/JavaVM.framework/Versions/1.5.0/Home/lib/fonts/LucidaSansRegular.ttf -noautosub -sid 0 -ofps 24000/1001 -lavdopts fast -mc 0 -noskip -o - -really-quiet -msglevel statusline=2
  204. DEBUG 2013-07-03 20:45:47.999 [mencoder-4] Attaching thread: mencoder-4
  205. DEBUG 2013-07-03 20:45:48.006 [mencoder-4] Unix process ID (/Applications/PS3 Media Server.app/Contents/Resources/Java/osx/mencoder): 808
  206. INFO  2013-07-03 20:45:54.074 [StartPlaying Event] renderer: 192.168.0.7, file: /Users/skuum/Movies/My5/-] Life of Pi  [2012] SweSub.720p.Web-DL.x264-MR.Stiffy/Life.of.Pi.2012.SWESUB.720p.WEB-DL.x264-Mr.Stiffy.mkv
  207. DEBUG 2013-07-03 20:45:54.201 [New I/O server worker #1-4] Setting InputStream new position to: 32 768
  208. DEBUG 2013-07-03 20:45:54.293 [New I/O server worker #1-5] Setting InputStream new position to: 65 536
  209. DEBUG 2013-07-03 20:45:54.398 [New I/O server worker #1-6] Setting InputStream new position to: 98 304
  210. DEBUG 2013-07-03 20:45:54.463 [New I/O server worker #1-7] Setting InputStream new position to: 131 072
  211. DEBUG 2013-07-03 20:45:54.533 [New I/O server worker #1-8] Setting InputStream new position to: 163 840
  212. DEBUG 2013-07-03 20:45:54.612 [New I/O server worker #1-9] Setting InputStream new position to: 196 608
  213. DEBUG 2013-07-03 20:45:54.690 [New I/O server worker #1-10] Setting InputStream new position to: 229 376
  214. DEBUG 2013-07-03 20:45:54.755 [New I/O server worker #1-11] Setting InputStream new position to: 262 144
  215. DEBUG 2013-07-03 20:45:54.838 [New I/O server worker #1-12] Setting InputStream new position to: 294 912
  216. DEBUG 2013-07-03 20:45:54.905 [New I/O server worker #1-13] Setting InputStream new position to: 327 680
  217. DEBUG 2013-07-03 20:45:55.003 [New I/O server worker #1-14] Setting InputStream new position to: 360 448
  218. DEBUG 2013-07-03 20:45:55.077 [New I/O server worker #1-15] Setting InputStream new position to: 393 216
  219. DEBUG 2013-07-03 20:45:55.166 [New I/O server worker #1-16] Setting InputStream new position to: 425 984
  220. DEBUG 2013-07-03 20:45:55.251 [New I/O server worker #1-1] Setting InputStream new position to: 458 752
  221. DEBUG 2013-07-03 20:45:55.334 [New I/O server worker #1-2] Setting InputStream new position to: 491 520
  222. DEBUG 2013-07-03 20:45:55.522 [New I/O server worker #1-4] Setting InputStream new position to: 99 996 000 000
  223. DEBUG 2013-07-03 20:45:55.543 [New I/O server worker #1-5] Setting InputStream new position to: 99 996 000 000
  224. DEBUG 2013-07-03 20:46:00.634 [New I/O server worker #1-6] Setting InputStream new position to: 1
  225. DEBUG 2013-07-03 20:46:00.806 [New I/O server worker #1-10] Setting InputStream new position to: 1
  226. DEBUG 2013-07-03 20:46:06.591 [Buffered IO End Checker] Stopping Unix process 808: mencoder-4
  227. DEBUG 2013-07-03 20:46:06.601 [Thread-25] Error consuming stream of spawned process: Stream closed
  228. INFO  2013-07-03 20:46:11.067 [StopPlaying Event] renderer: 192.168.0.7, file: /Users/skuum/Movies/My5/-] Life of Pi  [2012] SweSub.720p.Web-DL.x264-MR.Stiffy/Life.of.Pi.2012.SWESUB.720p.WEB-DL.x264-Mr.Stiffy.mkv
clone this paste RAW Paste Data