Want more features on Pastebin? Sign Up, it's FREE!
Guest

X-Rocknrolla-wyild1

By: a guest on Apr 25th, 2010  |  syntax: None  |  size: 3.18 KB  |  views: 72  |  expires: Never
download  |  raw  |  embed  |  report abuse  |  print
Text below is selected. Please press Ctrl+C to copy to your clipboard. (⌘+C on Mac)
  1. mediainfo RockNRolla.mkv
  2. General
  3. Complete name                    : RockNRolla.mkv
  4. Format                           : Matroska
  5. File size                        : 5.89 GiB
  6. Duration                         : 1h 54mn
  7. Overall bit rate                 : 7 380 Kbps
  8. Encoded date                     : UTC 2009-02-10 07:00:45
  9. Writing application              : mkvmerge v2.4.2 ('Oh My God') built on Jan 18 2009 17:30:28
  10. Writing library                  : libebml v0.7.7 + libmatroska v0.8.1
  11.  
  12. Video
  13. ID                               : 1
  14. Format                           : AVC
  15. Format/Info                      : Advanced Video Codec
  16. Format profile                   : High@L4.1
  17. Format settings, CABAC           : Yes
  18. Format settings, ReFrames        : 4 frames
  19. Muxing mode                      : Container profile=Unknown@4.1
  20. Codec ID                         : V_MPEG4/ISO/AVC
  21. Duration                         : 1h 54mn
  22. Bit rate                         : 5 723 Kbps
  23. Width                            : 1 920 pixels
  24. Height                           : 800 pixels
  25. Display aspect ratio             : 2.40:1
  26. Frame rate                       : 23.976 fps
  27. Resolution                       : 24 bits
  28. Colorimetry                      : 4:2:0
  29. Scan type                        : Progressive
  30. Bits/(Pixel*Frame)               : 0.155
  31. Stream size                      : 4.57 GiB (77%)
  32. Title                            : x264 - crf encode
  33. Writing library                  : x264 core 66 r1093M 1df50b9
  34. Encoding settings                : cabac=1 / ref=4 / deblock=1:-2:-2 / analyse=0x3:0x113 / me=umh / subme=7 / psy_rd=1.1:0.0 / mixed_ref=1 / me_range=24 / chroma_me=1 / trellis=2 / 8x8dct=1 / cqm=0 / deadzone=21,11 / chroma_qp_offset=-2 / threads=6 / nr=0 / decimate=0 / mbaff=0 / bframes=3 / b_pyramid=0 / b_adapt=1 / b_bias=0 / direct=3 / wpredb=1 / keyint=250 / keyint_min=25 / scenecut=40(pre) / rc=crf / crf=21.0 / qcomp=0.60 / qpmin=10 / qpmax=51 / qpstep=4 / vbv_maxrate=38000 / vbv_bufsize=30000 / ip_ratio=1.40 / pb_ratio=1.30 / aq=1:1.00
  35. Language                         : English
  36.  
  37. Audio
  38. ID                               : 2
  39. Format                           : DTS
  40. Format/Info                      : Digital Theater Systems
  41. Codec ID                         : A_DTS
  42. Duration                         : 1h 54mn
  43. Bit rate mode                    : Constant
  44. Bit rate                         : 1 510 Kbps
  45. Channel(s)                       : 6 channels
  46. Channel positions                : Front: L C R, Surround: L R, LFE
  47. Sampling rate                    : 48.0 KHz
  48. Resolution                       : 24 bits
  49. Stream size                      : 1.21 GiB (20%)
  50. Title                            : DTS - 1536 kbit/sec
  51. Language                         : English
  52.  
  53. Text #1
  54. ID                               : 3
  55. Format                           : UTF-8
  56. Codec ID                         : S_TEXT/UTF8
  57. Codec ID/Info                    : UTF-8 Plain Text
  58. Language                         : English
  59.  
  60. Text #2
  61. ID                               : 4
  62. Format                           : UTF-8
  63. Codec ID                         : S_TEXT/UTF8
  64. Codec ID/Info                    : UTF-8 Plain Text
  65. Language                         : Dutch
clone this paste RAW Paste Data