Pastebin launched a little side project called HostCabi.net, check it out ;-)Don't like ads? PRO users don't see any ads ;-)
Guest

make mkv

By: dericed on Jul 15th, 2011  |  syntax: None  |  size: 4.06 KB  |  hits: 129  |  expires: Never
download  |  raw  |  embed  |  report abuse  |  print
Text below is selected. Please press Ctrl+C to copy to your clipboard. (⌘+C on Mac)
  1. ffmpeg -i 0011TS.mov -vcodec ffv1 -an 0011TS.mkv
  2. ffmpeg version git-N-30446-g06a9da7, Copyright (c) 2000-2011 the FFmpeg developers
  3.   built on Jul 14 2011 17:46:08 with gcc 4.2.1 (Apple Inc. build 5666) (dot 3)
  4.   configuration: --prefix=/packages/ffmpeg-head/runtime --enable-static --disable-shared --enable-postproc --enable-nonfree --enable-libx264 --enable-gpl --enable-libfaac --enable-libmp3lame --enable-libtheora --enable-libxvid --enable-libvorbis --enable-libgsm --enable-libvpx --enable-avfilter --enable-libopencore-amrnb --enable-libopencore-amrwb --enable-version3 --enable-libfreetype --disable-ffplay --disable-ffserver --disable-ffprobe --disable-network --disable-devices --disable-doc --extra-cflags=--static --extra-ldflags= --bindir=/packages/ffmpeg-head/dist/bin --incdir=/packages/ffmpeg-head/dist/include --libdir=/packages/ffmpeg-head/dist/lib --prefix=/usr/local --enable-runtime-cpudetect
  5.   libavutil    51.  3. 0 / 51.  3. 0
  6.   libavcodec   53.  6. 1 / 53.  6. 1
  7.   libavformat  53.  2. 0 / 53.  2. 0
  8.   libavdevice  53.  1. 0 / 53.  1. 0
  9.   libavfilter   2. 11. 0 /  2. 11. 0
  10.   libswscale    0. 14. 0 /  0. 14. 0
  11.   libpostproc  51.  2. 0 / 51.  2. 0
  12. [mov,mp4,m4a,3gp,3g2,mj2 @ 0x101807c00] Unimplemented container channel layout.
  13. [mov,mp4,m4a,3gp,3g2,mj2 @ 0x101807c00] If you want to help, upload a sample of this file to ftp://upload.ffmpeg.org/MPlayer/incoming/ and contact the ffmpeg-devel mailing list.
  14. [mov,mp4,m4a,3gp,3g2,mj2 @ 0x101807c00] Unimplemented container channel layout.
  15. [mov,mp4,m4a,3gp,3g2,mj2 @ 0x101807c00] If you want to help, upload a sample of this file to ftp://upload.ffmpeg.org/MPlayer/incoming/ and contact the ffmpeg-devel mailing list.
  16. [mov,mp4,m4a,3gp,3g2,mj2 @ 0x101807c00] Unimplemented container channel layout.
  17. [mov,mp4,m4a,3gp,3g2,mj2 @ 0x101807c00] If you want to help, upload a sample of this file to ftp://upload.ffmpeg.org/MPlayer/incoming/ and contact the ffmpeg-devel mailing list.
  18. [mov,mp4,m4a,3gp,3g2,mj2 @ 0x101807c00] Unimplemented container channel layout.
  19. [mov,mp4,m4a,3gp,3g2,mj2 @ 0x101807c00] If you want to help, upload a sample of this file to ftp://upload.ffmpeg.org/MPlayer/incoming/ and contact the ffmpeg-devel mailing list.
  20.  
  21. Seems stream 0 codec frame rate differs from container frame rate: 29.97 (30000/1001) -> 29.97 (2997/100)
  22. Input #0, mov,mp4,m4a,3gp,3g2,mj2, from '0011TS.mov':
  23.   Metadata:
  24.     major_brand     : qt  
  25.     minor_version   : 537199360
  26.     compatible_brands: qt  
  27.     creation_time   : 2009-06-10 22:51:08
  28.   Duration: 00:00:02.60, start: 0.000000, bitrate: 118341 kb/s
  29.     Stream #0.0(eng): Video: dvvideo, yuv422p, 1280x1080 [PAR 3:2 DAR 16:9], 115084 kb/s, 29.97 fps, 29.97 tbr, 2997 tbn, 29.97 tbc
  30.     Metadata:
  31.       creation_time   : 2009-06-10 22:51:08
  32.     Stream #0.1(eng): Audio: pcm_s16le, 48000 Hz, 1 channels, s16, 768 kb/s
  33.     Metadata:
  34.       creation_time   : 2009-06-10 22:51:08
  35.     Stream #0.2(eng): Audio: pcm_s16le, 48000 Hz, 1 channels, s16, 768 kb/s
  36.     Metadata:
  37.       creation_time   : 2009-06-10 22:51:08
  38.     Stream #0.3(eng): Audio: pcm_s16le, 48000 Hz, 1 channels, s16, 768 kb/s
  39.     Metadata:
  40.       creation_time   : 2009-06-10 22:51:08
  41.     Stream #0.4(eng): Audio: pcm_s16le, 48000 Hz, 1 channels, s16, 768 kb/s
  42.     Metadata:
  43.       creation_time   : 2009-06-10 22:51:08
  44.     Stream #0.5(eng): Data: tmcd / 0x64636D74, 0 kb/s
  45.     Metadata:
  46.       creation_time   : 2009-06-10 22:51:08
  47. [buffer @ 0x101505a80] w:1280 h:1080 pixfmt:yuv422p tb:1/1000000 sar:3/2 sws_param:
  48. Output #0, matroska, to '0011TS.mkv':
  49.   Metadata:
  50.     major_brand     : qt  
  51.     minor_version   : 537199360
  52.     compatible_brands: qt  
  53.     creation_time   : 2009-06-10 22:51:08
  54.     encoder         : Lavf53.2.0
  55.     Stream #0.0(eng): Video: ffv1, yuv422p, 1280x1080 [PAR 3:2 DAR 16:9], q=2-31, 200 kb/s, 1k tbn, 29.97 tbc
  56.     Metadata:
  57.       creation_time   : 2009-06-10 22:51:08
  58. Stream mapping:
  59.   Stream #0.0 -> #0.0
  60. Press [q] to stop, [?] for help
  61. frame=   78 fps=  5 q=0.0 Lsize=   54037kB time=2.60 bitrate=170061.7kbits/s    
  62. video:54035kB audio:0kB global headers:0kB muxing overhead 0.003204%