Pastebin launched a little side project called VERYVIRAL.com, check it out ;-) Want more features on Pastebin? Sign Up, it's FREE!
Guest

Untitled

By: a guest on Jul 18th, 2010  |  syntax: None  |  size: 13.09 KB  |  views: 53  |  expires: Never
download  |  raw  |  embed  |  report abuse  |  print
Text below is selected. Please press Ctrl+C to copy to your clipboard. (⌘+C on Mac)
  1. 20:05:48 T:3043821408 M:193605632  NOTICE: -----------------------------------------------------------------------
  2. 20:05:48 T:3043821408 M:193392640  NOTICE: Starting XBMC, Platform: Linux (Ubuntu 8.04.4 LTS, 2.6.24-27-generic i686). Built on Jun 20 2010 (SVN:31233S)
  3. 20:05:48 T:3043821408 M:193392640  NOTICE: special://xbmc/ is mapped to: /usr/local/xbmc/share/xbmc
  4. 20:05:48 T:3043821408 M:193392640  NOTICE: special://xbmcbin/ is mapped to: /usr/local/xbmc/lib/xbmc
  5. 20:05:48 T:3043821408 M:193331200  NOTICE: special://masterprofile/ is mapped to: /home/xbmc/.xbmc/userdata
  6. 20:05:48 T:3043821408 M:193331200  NOTICE: special://home/ is mapped to: /home/xbmc/.xbmc
  7. 20:05:48 T:3043821408 M:193331200  NOTICE: special://temp/ is mapped to: /home/xbmc/.xbmc/temp
  8. 20:05:48 T:3043821408 M:193331200  NOTICE: The executable running is: /usr/local/xbmc/lib/xbmc/xbmc.bin
  9. 20:05:48 T:3043821408 M:193331200  NOTICE: Log File is located: /home/xbmc/.xbmc/temp/xbmc.log
  10. ..
  11. ..
  12. ..
  13. 20:13:19 T:2720517008 M: 81895424   DEBUG: DoWork - took 194 ms to load special://masterprofile/Thumbnails/Video/d/d8c42ef0.tbn
  14. 20:13:20 T:2728909712 M: 79941632   DEBUG: Compress - no format suitable (min error is: 6.68:0.00)
  15. 20:13:20 T:2746305424 M: 79847424   DEBUG: Open - av_find_stream_info finished
  16. 20:13:20 T:2746305424 M: 79908864    INFO: ffmpeg[A3B14B90]: Input #0, matroska, from 'rar://%2fhome%2fxbmc%2fseries%2fStargate%2eUniverse%2fStargate%2eUniverse%2eS01E12%2e720p%2eHDTV%2ex264%2dIMMERSE%2fstargate%2euniverse%2es01e12%2e720p%2ehdtv%2ex264%2dimmerse%2erar/stargate.universe.s01e12.720p.hdtv.x264-immerse.mkv':
  17. 20:13:20 T:2746305424 M: 79908864    INFO: ffmpeg[A3B14B90]:   Duration: 00:42:44.00, start: 0.000000, bitrate: 3663 kb/s
  18. 20:13:20 T:2746305424 M: 79908864    INFO: ffmpeg[A3B14B90]:     Stream #0.0(eng): Video: h264, yuv420p, 1280x720, PAR 1:1 DAR 16:9, 23.98 fps, 24 tbr, 1k tbn, 47.95 tbc
  19. 20:13:20 T:2746305424 M: 79908864    INFO: ffmpeg[A3B14B90]:     Stream #0.1(eng): Audio: ac3, 48000 Hz, 5.1, s16, 384 kb/s
  20. 20:13:20 T:2746305424 M: 79908864    INFO: ffmpeg[A3B14B90]:     Metadata:
  21. 20:13:20 T:2746305424 M: 79908864    INFO: ffmpeg[A3B14B90]:       title           : English
  22. 20:13:20 T:2823809936 M: 80523264   DEBUG: Thread 2823809936 terminating
  23. 20:13:20 T:2823809936 M: 80617472   DEBUG: thread start, auto delete: 0
  24. 20:13:20 T:2746305424 M: 80609280   DEBUG: Open - probing detected format [matroska]
  25. 20:13:21 T:2728909712 M: 80625664   DEBUG: Creating DDS version of: special://masterprofile/Thumbnails/Video/7/748d34e2.tbn
  26. 20:13:21 T:2823809936 M: 80633856   DEBUG: Thread 2823809936 terminating
  27. 20:13:21 T:2823809936 M: 80633856   DEBUG: thread start, auto delete: 0
  28. 20:13:21 T:2746305424 M: 80633856   DEBUG: Open - av_find_stream_info starting
  29. 20:13:21 T:2746305424 M: 78786560   DEBUG: Open - av_find_stream_info finished
  30. 20:13:21 T:2746305424 M: 78848000    INFO: ffmpeg[A3B14B90]: Input #0, matroska, from 'rar://%2fhome%2fxbmc%2fseries%2fStargate%2eUniverse%2fStargate%2eUniverse%2eS01E18%2e720p%2eHDTV%2ex264%2dCTU%2fctu%2dx264%2dstargate%2euniverse%2e118%2erar/stargate.universe.s01e18.720p.hdtv.x264-ctu.mkv':
  31. 20:13:21 T:2746305424 M: 78848000    INFO: ffmpeg[A3B14B90]:   Duration: 00:42:23.55, start: 0.000000, bitrate: 3690 kb/s
  32. 20:13:21 T:2746305424 M: 78848000    INFO: ffmpeg[A3B14B90]:     Stream #0.0: Audio: ac3, 48000 Hz, 5.1, s16, 384 kb/s
  33. 20:13:21 T:2746305424 M: 78848000    INFO: ffmpeg[A3B14B90]:     Stream #0.1(eng): Video: h264, yuv420p, 1280x720, PAR 1:1 DAR 16:9, 23.98 fps, 24 tbr, 1k tbn, 47.95 tbc
  34. 20:13:21 T:2823809936 M: 79523840   DEBUG: Thread 2823809936 terminating
  35. 20:13:21 T:2823809936 M: 79593472   DEBUG: thread start, auto delete: 0
  36. 20:13:21 T:2737912720 M: 79577088   DEBUG: Open - probing detected format [matroska]
  37. 20:13:22 T:2728909712 M: 79626240   DEBUG: Compress - no format suitable (min error is: 16.44:0.00)
  38. 20:13:22 T:3043821408 M: 79642624   DEBUG: new file set audiostream:0
  39. 20:13:23 T:3043821408 M: 79396864   DEBUG: CPlayerCoreFactory::GetPlayers(rar://%2fhome%2fxbmc%2fseries%2fStargate%2eUniverse%2fStargate%2eUniverse%2eS01E18%2e720p%2eHDTV%2ex264%2dCTU%2fctu%2dx264%2dstargate%2euniverse%2e118%2erar/stargate.universe.s01e18.720p.hdtv.x264-ctu.mkv)
  40. 20:13:23 T:3043821408 M: 79396864   DEBUG: CPlayerSelectionRule::GetPlayers: considering rule: system rules
  41. 20:13:23 T:3043821408 M: 79396864   DEBUG: CPlayerSelectionRule::GetPlayers: matches rule: system rules
  42. 20:13:23 T:3043821408 M: 79396864   DEBUG: CPlayerSelectionRule::GetPlayers: considering rule: rtv
  43. 20:13:23 T:3043821408 M: 79396864   DEBUG: CPlayerSelectionRule::GetPlayers: considering rule: hdhomerun/myth/rtmp/mms/udp
  44. 20:13:23 T:3043821408 M: 79396864   DEBUG: CPlayerSelectionRule::GetPlayers: considering rule: lastfm/shout
  45. 20:13:23 T:3043821408 M: 79396864   DEBUG: CPlayerSelectionRule::GetPlayers: considering rule: rtsp
  46. 20:13:23 T:3043821408 M: 79396864   DEBUG: CPlayerSelectionRule::GetPlayers: considering rule: streams
  47. 20:13:23 T:3043821408 M: 79396864   DEBUG: CPlayerSelectionRule::GetPlayers: considering rule: dvd
  48. 20:13:23 T:3043821408 M: 79396864   DEBUG: CPlayerSelectionRule::GetPlayers: considering rule: dvdfile
  49. 20:13:23 T:3043821408 M: 79396864   DEBUG: CPlayerSelectionRule::GetPlayers: considering rule: dvdimage
  50. 20:13:23 T:3043821408 M: 79396864   DEBUG: CPlayerSelectionRule::GetPlayers: considering rule: sdp/asf
  51. 20:13:23 T:3043821408 M: 79396864   DEBUG: CPlayerSelectionRule::GetPlayers: considering rule: nsv
  52. 20:13:23 T:3043821408 M: 79396864   DEBUG: CPlayerCoreFactory::GetPlayers: matched 0 rules with players
  53. 20:13:23 T:3043821408 M: 79396864   DEBUG: CPlayerCoreFactory::GetPlayers: adding videodefaultplayer (1)
  54. 20:13:23 T:3043821408 M: 79396864   DEBUG: CPlayerCoreFactory::GetPlayers: for video=1, audio=0
  55. 20:13:23 T:3043821408 M: 79396864   DEBUG: CPlayerCoreFactory::GetPlayers: for video=1, audio=1
  56. 20:13:23 T:3043821408 M: 79396864   DEBUG: CPlayerCoreFactory::GetPlayers: adding player: DVDPlayer (1)
  57. 20:13:23 T:3043821408 M: 79396864   DEBUG: CPlayerCoreFactory::GetPlayers: added 1 players
  58. 20:13:23 T:3043821408 M: 79396864  NOTICE: DVDPlayer: Opening: rar://%2fhome%2fxbmc%2fseries%2fStargate%2eUniverse%2fStargate%2eUniverse%2eS01E18%2e720p%2eHDTV%2ex264%2dCTU%2fctu%2dx264%2dstargate%2euniverse%2e118%2erar/stargate.universe.s01e18.720p.hdtv.x264-ctu.mkv
  59. 20:13:23 T:3043821408 M: 79396864 WARNING: CDVDMessageQueue(player)::Put MSGQ_NOT_INITIALIZED
  60. 20:13:23 T:2784213904 M: 79376384   DEBUG: thread start, auto delete: 0
  61. 20:13:23 T:2784213904 M: 79376384  NOTICE: Creating InputStream
  62. 20:13:23 T:2792606608 M: 79310848   DEBUG: thread start, auto delete: 0
  63. 20:13:23 T:2784213904 M: 79310848    INFO: CDVDFactorySubtitle::GetSubtitles, searching subtitles
  64. 20:13:23 T:2784213904 M: 79310848   DEBUG: CacheSubtitles: START
  65. 20:13:23 T:2784213904 M: 79310848   DEBUG: CacheSubtitles: Checking for common subdirs...
  66. 20:13:23 T:2784213904 M: 78938112   DEBUG: CacheSubtitles: Done (time: 37 ms)
  67. 20:13:23 T:2784213904 M: 78938112   DEBUG: CacheSubtitles: Searching for subtitles...
  68. 20:13:23 T:2784213904 M: 78897152   DEBUG: CacheRarSubs:: Found file stargate.universe.s01e18.720p.hdtv.x264-ctu.mkv
  69. 20:13:23 T:2784213904 M: 78897152   DEBUG: CacheSubtitles: Done (time: 17 ms)
  70. 20:13:23 T:2784213904 M: 78831616   DEBUG: CacheSubtitles: END (total time: 57 ms)
  71. 20:13:23 T:2784213904 M: 78831616    INFO: CDVDFactorySubtitle::GetSubtitles, searching subtitles done
  72. 20:13:23 T:2784213904 M: 78831616  NOTICE: Creating Demuxer
  73. 20:13:23 T:2784213904 M: 78761984   DEBUG: Open - probing detected format [matroska]
  74. 20:13:23 T:3043821408 M: 78786560   DEBUG: ------ Window Init (DialogBusy.xml) ------
  75. 20:13:23 T:3043821408 M: 78786560   DEBUG: Alloc resources: 0.01ms (0.00 ms skin load)
  76. 20:13:23 T:2792606608 M: 78286848   DEBUG: Thread 2792606608 terminating
  77. 20:13:23 T:2792606608 M: 78286848   DEBUG: thread start, auto delete: 0
  78. 20:13:23 T:2784213904 M: 78286848   DEBUG: Open - av_find_stream_info starting
  79. 20:13:23 T:2784213904 M: 78368768   DEBUG: Open - av_find_stream_info finished
  80. 20:13:23 T:2784213904 M: 78368768    INFO: ffmpeg[A5F3BB90]: Input #0, matroska, from 'rar://%2fhome%2fxbmc%2fseries%2fStargate%2eUniverse%2fStargate%2eUniverse%2eS01E18%2e720p%2eHDTV%2ex264%2dCTU%2fctu%2dx264%2dstargate%2euniverse%2e118%2erar/stargate.universe.s01e18.720p.hdtv.x264-ctu.mkv':
  81. 20:13:23 T:2784213904 M: 78368768    INFO: ffmpeg[A5F3BB90]:   Duration: 00:42:23.55, start: 0.000000, bitrate: 3690 kb/s
  82. 20:13:23 T:2784213904 M: 78368768    INFO: ffmpeg[A5F3BB90]:     Stream #0.0: Audio: ac3, 48000 Hz, 5.1, s16, 384 kb/s
  83. 20:13:23 T:2784213904 M: 78303232    INFO: ffmpeg[A5F3BB90]:     Stream #0.1(eng): Video: h264, yuv420p, 1280x720, PAR 1:1 DAR 16:9, 23.98 fps, 24 tbr, 1k tbn, 47.95 tbc
  84. 20:13:23 T:2784213904 M: 78303232  NOTICE: Opening video stream: 1 source: 256
  85. 20:13:23 T:2784213904 M: 78303232  NOTICE: Creating video codec with codec id: 28
  86. 20:13:23 T:2784213904 M: 78303232   DEBUG: CDVDFactoryCodec: compiled in hardware support: CrystalHD:yes OpenMax:no VDPAU:no VAAPI:no
  87. 20:13:23 T:2784213904 M: 78303232    INFO: Trying Broadcom Crystal HD Decoder...
  88. 20:13:23 T:2784213904 M: 78303232   DEBUG: FactoryCodec - Video:  - Opening
  89. 20:13:26 T:2762996624 M: 73338880   DEBUG: thread start, auto delete: 0
  90. 20:13:26 T:2762996624 M: 73338880   DEBUG: CrystalHD: Output Thread Started...
  91. 20:13:26 T:2784213904 M: 73338880   DEBUG: CrystalHD: codec opened
  92. 20:13:26 T:2784213904 M: 73338880    INFO: DVDVideoCodecCrystalHD: Opened Broadcom Crystal HD Codec
  93. 20:13:26 T:2784213904 M: 73338880   DEBUG: FactoryCodec - Video: chd-h264 - Opened
  94. 20:13:26 T:2784213904 M: 73338880  NOTICE: Creating video thread
  95. 20:13:26 T:2712124304 M: 73277440   DEBUG: thread start, auto delete: 0
  96. 20:13:26 T:2784213904 M: 73277440  NOTICE: Opening audio stream: 0 source: 256
  97. 20:13:26 T:2784213904 M: 73277440  NOTICE: Finding audio codec for: 86020
  98. 20:13:26 T:2784213904 M: 73277440   DEBUG: FactoryCodec - Audio: PassthroughFFmpeg - Opening
  99. 20:13:26 T:2784213904 M: 73277440    INFO: CDVDAudioCodecPassthroughFFmpeg::Open - Won't transcode for HDMI
  100. 20:13:26 T:2784213904 M: 73277440   DEBUG: FactoryCodec - Audio: PassthroughFFmpeg - Failed
  101. 20:13:26 T:2784213904 M: 73277440   DEBUG: FactoryCodec - Audio: FFmpeg - Opening
  102. 20:13:26 T:2784213904 M: 73277440   DEBUG: FactoryCodec - Audio: FFmpeg - Opened
  103. 20:13:26 T:2784213904 M: 73277440  NOTICE: Creating audio thread
  104. 20:13:26 T:2703731600 M: 73252864   DEBUG: thread start, auto delete: 0
  105. 20:13:26 T:2703731600 M: 73252864  NOTICE: running thread: CDVDPlayerAudio::Process()
  106. 20:13:26 T:2784213904 M: 73252864  NOTICE: Opening Subtitle stream: 0 source: 1024
  107. 20:13:26 T:2784213904 M: 73252864   ERROR: OpenStream - Unable to create subtitle parser
  108. 20:13:26 T:2784213904 M: 73252864 WARNING: OpenSubtitleStream - Unsupported stream 0. Stream disabled.
  109. 20:13:26 T:2784213904 M: 73252864  NOTICE: Opening Subtitle stream: 0 source: 1025
  110. 20:13:26 T:2784213904 M: 73252864   ERROR: OpenStream - Unable to create subtitle parser
  111. 20:13:26 T:2784213904 M: 73252864 WARNING: OpenSubtitleStream - Unsupported stream 0. Stream disabled.
  112. 20:13:26 T:2784213904 M: 73252864  NOTICE: Opening Subtitle stream: 0 source: 1026
  113. 20:13:26 T:2784213904 M: 73252864   ERROR: OpenStream - Unable to create subtitle parser
  114. 20:13:26 T:2784213904 M: 73252864 WARNING: OpenSubtitleStream - Unsupported stream 0. Stream disabled.
  115. 20:13:26 T:2784213904 M: 73252864   DEBUG: ReadEditDecisionLists - Checking for edit decision lists (EDL) on local drive or remote share for: rar://%2fhome%2fxbmc%2fseries%2fStargate%2eUniverse%2fStargate%2eUniverse%2eS01E18%2e720p%2eHDTV%2ex264%2dCTU%2fctu%2dx264%2dstargate%2euniverse%2e118%2erar/stargate.universe.s01e18.720p.hdtv.x264-ctu.mkv
  116. 20:13:26 T:2784213904 M: 73252864   DEBUG: CDVDPlayer::SetCaching - caching state 2
  117. 20:13:26 T:2703731600 M: 73252864  NOTICE: Creating audio device with codec id: 86020, channels: 6, sample rate: 48000, no pass-through
  118. 20:13:26 T:2703731600 M: 73252864    INFO: AudioRendererFactory:  not a explicit device, trying to autodetect.
  119. 20:13:26 T:2703731600 M: 73252864    INFO: CPCMRemap: Channel Layout: 2.0
  120. 20:13:26 T:2703731600 M: 73252864    INFO: CPCMRemap: I channel map: FL,FR,CE,LFE,SL,SR
  121. 20:13:26 T:2703731600 M: 73252864    INFO: CPCMRemap: O channel map: FL,FR
  122. 20:13:26 T:2703731600 M: 73252864   DEBUG: CPCMRemap: Forcing side channel map to back channels
  123. 20:13:26 T:2703731600 M: 73252864   DEBUG: CPCMRemap: Downmix normalization is disabled
  124. 20:13:26 T:2703731600 M: 73252864   DEBUG: CPCMRemap: FL = FL(1.000000) CE(0.707107) LFE(0.707107) BL(1.000000)
  125. 20:13:26 T:2703731600 M: 73252864   DEBUG: CPCMRemap: FR = FR(1.000000) CE(0.707107) LFE(0.707107) BR(1.000000)
  126. 20:13:26 T:2703731600 M: 73252864   DEBUG: CPulseAudioDirectSound::CPulseAudioDirectSound - Requested channels changed from 6 to 2
  127. 20:13:26 T:2703731600 M: 73252864   DEBUG: RemoveActiveDevice - Removing device 1
  128. 20:13:26 T:2703731600 M: 73252864   DEBUG: CGUIAudioManager::DeInitialize
  129. 20:13:27 T:2712124304 M: 71999488   DEBUG: LinuxRendererGL: Cleaning up GL resources
  130. 20:13:27 T:2712124304 M: 71999488  NOTICE: running thread: video_thread
  131. 20:13:27 T:2712124304 M: 71999488   DEBUG: CDVDPlayerVideo - CDVDMsg::GENERAL_SYNCHRONIZE
  132. 20:13:27 T:2712124304 M: 72007680   DEBUG: CDVDPlayerVideo - CDVDMsg::GENERAL_RESYNC(42000.000000, 0)
  133. xbmc@AppleTV:~/.xbmc/temp$
clone this paste RAW Paste Data