SHARE
TWEET

Untitled

Secasa Dec 3rd, 2016 6 Never
Not a member of Pastebin yet? Sign Up, it unlocks many cool features!
  1. Format                         : BDAV
  2. Format/Info                    : Blu-ray Video
  3. File size                      : 21.6 GiB
  4. Duration                       : 59s 970ms
  5. Overall bit rate mode          : Variable
  6. Overall bit rate               : 3 095 Mbps
  7. Maximum Overall bit rate       : 48.0 Mbps
  8.  
  9. Video
  10. ID                             : 4113 (0x1011)
  11. Menu ID                        : 1 (0x1)
  12. Format                         : VC-1
  13. Format profile                 : Advanced@L3
  14. Codec ID                       : 234
  15. Duration                       : 59s 434ms
  16. Width                          : 1 920 pixels
  17. Height                         : 1 080 pixels
  18. Display aspect ratio           : 16:9
  19. Frame rate                     : 23.976 fps
  20. Color space                    : YUV
  21. Chroma subsampling             : 4:2:0
  22. Bit depth                      : 8 bits
  23. Scan type                      : Progressive
  24. Compression mode               : Lossy
  25.  
  26. Audio #1
  27. ID                             : 4352 (0x1100)
  28. Menu ID                        : 1 (0x1)
  29. Format                         : DTS
  30. Format/Info                    : Digital Theater Systems
  31. Format profile                 : MA / Core
  32. Mode                           : 16
  33. Format settings, Endianness    : Big
  34. Muxing mode                    : Stream extension
  35. Codec ID                       : 134
  36. Duration                       : 59s 822ms
  37. Bit rate mode                  : Variable
  38. Bit rate                       : Unknown / 1 509 Kbps
  39. Channel(s)                     : 6 channels
  40. Channel positions              : Front: L C R, Side: L R, LFE
  41. Sampling rate                  : 48.0 KHz
  42. Bit depth                      : 16 bits
  43. Compression mode               : Lossless / Lossy
  44.  
  45. Audio #2
  46. ID                             : 4353 (0x1101)
  47. Menu ID                        : 1 (0x1)
  48. Format                         : AC-3
  49. Format/Info                    : Audio Coding 3
  50. Mode extension                 : CM (complete main)
  51. Format settings, Endianness    : Big
  52. Codec ID                       : 129
  53. Duration                       : 59s 970ms
  54. Bit rate mode                  : Constant
  55. Bit rate                       : 640 Kbps
  56. Channel(s)                     : 6 channels
  57. Channel positions              : Front: L C R, Side: L R, LFE
  58. Sampling rate                  : 48.0 KHz
  59. Compression mode               : Lossy
  60. Stream size                    : 4.58 MiB (0%)
  61.  
  62. Audio #3
  63. ID                             : 4354 (0x1102)
  64. Menu ID                        : 1 (0x1)
  65. Format                         : AC-3
  66. Format/Info                    : Audio Coding 3
  67. Mode extension                 : CM (complete main)
  68. Format settings, Endianness    : Big
  69. Codec ID                       : 129
  70. Duration                       : 59s 970ms
  71. Bit rate mode                  : Constant
  72. Bit rate                       : 640 Kbps
  73. Channel(s)                     : 6 channels
  74. Channel positions              : Front: L C R, Side: L R, LFE
  75. Sampling rate                  : 48.0 KHz
  76. Compression mode               : Lossy
  77. Stream size                    : 4.58 MiB (0%)
  78.  
  79. Audio #4
  80. ID                             : 4355 (0x1103)
  81. Menu ID                        : 1 (0x1)
  82. Format                         : AC-3
  83. Format/Info                    : Audio Coding 3
  84. Mode extension                 : CM (complete main)
  85. Format settings, Endianness    : Big
  86. Codec ID                       : 129
  87. Duration                       : 59s 970ms
  88. Bit rate mode                  : Constant
  89. Bit rate                       : 640 Kbps
  90. Channel(s)                     : 6 channels
  91. Channel positions              : Front: L C R, Side: L R, LFE
  92. Sampling rate                  : 48.0 KHz
  93. Compression mode               : Lossy
  94. Stream size                    : 4.58 MiB (0%)
  95.  
  96. Text #1
  97. ID                             : 4608 (0x1200)
  98. Menu ID                        : 1 (0x1)
  99. Format                         : PGS
  100. Codec ID                       : 144
  101.  
  102. Text #2
  103. ID                             : 4609 (0x1201)
  104. Menu ID                        : 1 (0x1)
  105. Format                         : PGS
  106. Codec ID                       : 144
  107.  
  108. Text #3
  109. ID                             : 4610 (0x1202)
  110. Menu ID                        : 1 (0x1)
  111. Format                         : PGS
  112. Codec ID                       : 144
  113.  
  114. Text #4
  115. ID                             : 4611 (0x1203)
  116. Menu ID                        : 1 (0x1)
  117. Format                         : PGS
  118. Codec ID                       : 144
  119.  
  120. Text #5
  121. ID                             : 4612 (0x1204)
  122. Menu ID                        : 1 (0x1)
  123. Format                         : PGS
  124. Codec ID                       : 144
  125.  
  126. Text #6
  127. ID                             : 4613 (0x1205)
  128. Menu ID                        : 1 (0x1)
  129. Format                         : PGS
  130. Codec ID                       : 144
RAW Paste Data
Top