Pastebin launched a little side project called VERYVIRAL.com, check it out ;-) Want more features on Pastebin? Sign Up, it's FREE!
Guest

X-OfficeSpace-wyild1

By: a guest on Apr 25th, 2010  |  syntax: None  |  size: 2.94 KB  |  views: 45  |  expires: Never
download  |  raw  |  embed  |  report abuse  |  print
Text below is selected. Please press Ctrl+C to copy to your clipboard. (⌘+C on Mac)
  1. mediainfo Office.Space.1080p.Bluray.mkv
  2. General
  3. Complete name                    : Office.Space.1080p.Bluray.mkv
  4. Format                           : Matroska
  5. File size                        : 4.37 GiB
  6. Duration                         : 1h 29mn
  7. Overall bit rate                 : 7 006 Kbps
  8. Encoded date                     : UTC 2009-02-14 09:42:06
  9. Writing application              : mkvmerge v2.3.0 ('Freak U') built on Sep  8 2008 18:32:16
  10. Writing library                  : libebml v0.7.7 + libmatroska v0.8.1
  11.  
  12. Video
  13. ID                               : 1
  14. Format                           : AVC
  15. Format/Info                      : Advanced Video Codec
  16. Format profile                   : High@L4.1
  17. Format settings, CABAC           : Yes
  18. Format settings, ReFrames        : 4 frames
  19. Muxing mode                      : Container profile=Unknown@4.1
  20. Codec ID                         : V_MPEG4/ISO/AVC
  21. Duration                         : 1h 29mn
  22. Bit rate                         : 5 357 Kbps
  23. Nominal bit rate                 : 5 499 Kbps
  24. Width                            : 1 920 pixels
  25. Height                           : 1 038 pixels
  26. Display aspect ratio             : 1.850
  27. Frame rate                       : 23.976 fps
  28. Resolution                       : 24 bits
  29. Colorimetry                      : 4:2:0
  30. Scan type                        : Progressive
  31. Bits/(Pixel*Frame)               : 0.112
  32. Stream size                      : 3.34 GiB (76%)
  33. Writing library                  : x264 core 66 r1109M 75b495f
  34. Encoding settings                : cabac=1 / ref=4 / deblock=1:-2:-1 / analyse=0x3:0x113 / me=umh / subme=9 / psy_rd=0.8:0.0 / mixed_ref=1 / me_range=32 / chroma_me=1 / trellis=2 / 8x8dct=1 / cqm=0 / deadzone=21,11 / chroma_qp_offset=-4 / threads=3 / nr=0 / decimate=1 / mbaff=0 / bframes=3 / b_pyramid=1 / b_adapt=2 / b_bias=0 / direct=3 / wpredb=1 / keyint=250 / keyint_min=25 / scenecut=40(pre) / rc=2pass / bitrate=5499 / ratetol=1.0 / qcomp=0.60 / qpmin=10 / qpmax=51 / qpstep=4 / cplxblur=20.0 / qblur=0.5 / vbv_maxrate=40000 / vbv_bufsize=40000 / ip_ratio=1.40 / pb_ratio=1.30 / aq=1:1.10 / zones=122234,128398,q=30
  35.  
  36. Audio
  37. ID                               : 2
  38. Format                           : DTS
  39. Format/Info                      : Digital Theater Systems
  40. Codec ID                         : A_DTS
  41. Duration                         : 1h 29mn
  42. Bit rate mode                    : Constant
  43. Bit rate                         : 1 510 Kbps
  44. Channel(s)                       : 6 channels
  45. Channel positions                : Front: L C R, Surround: L R, LFE
  46. Sampling rate                    : 48.0 KHz
  47. Resolution                       : 24 bits
  48. Stream size                      : 964 MiB (22%)
  49. Language                         : English
  50.  
  51. Text
  52. ID                               : 3
  53. Format                           : UTF-8
  54. Codec ID                         : S_TEXT/UTF8
  55. Codec ID/Info                    : UTF-8 Plain Text
  56. Language                         : Dutch