Pastebin launched a little side project called VERYVIRAL.com, check it out ;-) Want more features on Pastebin? Sign Up, it's FREE!
Guest

Untitled

By: a guest on Jan 12th, 2013  |  syntax: None  |  size: 3.46 KB  |  views: 18  |  expires: Never
download  |  raw  |  embed  |  report abuse  |  print
Text below is selected. Please press Ctrl+C to copy to your clipboard. (⌘+C on Mac)
  1. Общее
  2. Уникальный идентификатор                 : 168348648403719580577546155723716462494 (0x7EA6C532C2870C1E037BA147C20E879E)
  3. Полное имя                               : D:\X3M feat. Pandora - Drottningen av Aland.mkv
  4. Формат                                   : Matroska
  5. Версия формата                           : Version 2
  6. Размер файла                             : 258 Мбайт
  7. Продолжительность                        : 3 м. 24 с.
  8. Общий поток                              : 10,6 Мбит/сек
  9. Программа кодирования                    : Lavf51.12.1
  10. Библиотека кодирования                   : Lavf51.12.1
  11.  
  12. Видео
  13. Идентификатор                            : 1
  14. Формат                                   : AVC
  15. Формат/Информация                        : Advanced Video Codec
  16. Профиль формата                          : Baseline@L1.3
  17. Параметр CABAC формата                   : Нет
  18. Параметр ReFrames формата                : 1 кадр
  19. Параметр GOP формата                     : M=1, N=12
  20. Идентификатор кодека                     : V_MPEG4/ISO/AVC
  21. Продолжительность                        : 3 м. 24 с.
  22. Битрейт                                  : 9895 Кбит/сек
  23. Ширина                                   : 1920 пикселей
  24. Высота                                   : 1080 пикселей
  25. Соотношение сторон                       : 16:9
  26. Режим частоты кадров                     : Постоянный
  27. Частота кадров                           : 50,000 кадров/сек
  28. Цветовое пространство                    : YUV
  29. Субдискретизация насыщенности            : 4:2:0
  30. Битовая глубина                          : 8 бит
  31. Тип развёртки                            : Прогрессивная
  32. Бит/(Пиксели*Кадры)                      : 0.095
  33. Размер потока                            : 242 Мбайт (94%)
  34. Default                                  : Да
  35. Forced                                   : Нет
  36.  
  37. Аудио
  38. Идентификатор                            : 2
  39. Формат                                   : AC-3
  40. Формат/Информация                        : Audio Coding 3
  41. Расширение режима                        : CM (complete main)
  42. Параметр Endianness формата              : Big
  43. Идентификатор кодека                     : A_AC3
  44. Продолжительность                        : 3 м. 24 с.
  45. Вид битрейта                             : Постоянный
  46. Битрейт                                  : 448 Кбит/сек
  47. Каналы                                   : 2 канала
  48. Расположение каналов                     : Front: L R
  49. Частота                                  : 44,1 КГц
  50. Битовая глубина                          : 16 бит
  51. Метод сжатия                             : С потерями
  52. Размер потока                            : 10,9 Мбайт (4%)
  53. Default                                  : Да
  54. Forced                                   : Нет
clone this paste RAW Paste Data