This week only. Pastebin PRO Accounts Christmas Special! Don't miss out!Want more features on Pastebin? Sign Up, it's FREE!
Guest

Untitled

By: a guest on Jun 13th, 2010  |  syntax: Bash  |  size: 9.06 KB  |  views: 98  |  expires: Never
download  |  raw  |  embed  |  report abuse  |  print
Text below is selected. Please press Ctrl+C to copy to your clipboard. (⌘+C on Mac)
  1. General
  2. Complete name                    : films/Un Prophète 1080p DTS BD (2009).mkv
  3. Format                           : Matroska
  4. File size                        : 17.5 GiB
  5. Duration                         : 2h 35mn
  6. Overall bit rate                 : 16.1 Mbps
  7. Encoded date                     : UTC 2010-03-04 16:48:12
  8. Writing application              : mkvmerge v3.2.0 ('Beginnings') built on Feb 12 2010 16:46:17
  9. Writing library                  : libebml v0.7.9 + libmatroska v0.8.1
  10.  
  11. Video
  12. ID                               : 1
  13. Format                           : AVC
  14. Format/Info                      : Advanced Video Codec
  15. Format profile                   : High@L4.1
  16. Format settings, CABAC           : Yes
  17. Format settings, ReFrames        : 4 frames
  18. Muxing mode                      : Container profile=Unknown@4.1
  19. Codec ID                         : V_MPEG4/ISO/AVC
  20. Duration                         : 2h 35mn
  21. Bit rate                         : 14.3 Mbps
  22. Nominal bit rate                 : 14.6 Mbps
  23. Width                            : 1 920 pixels
  24. Height                           : 1 036 pixels
  25. Display aspect ratio             : 1.853
  26. Frame rate                       : 24.000 fps
  27. Resolution                       : 8 bits
  28. Colorimetry                      : 4:2:0
  29. Scan type                        : Progressive
  30. Bits/(Pixel*Frame)               : 0.299
  31. Stream size                      : 15.5 GiB (89%)
  32. Title                            : D-Z0N3 HD - High@L4.1 - 14,6 Mbps
  33. Writing library                  : x264 core 85 r1442kGIT 781d300
  34. Encoding settings                : cabac=1 / ref=4 / deblock=1:-3:-3 / analyse=0x3:0x113 / me=umh / subme=10 / psy=1 / psy_rd=1.00:0.00 / mixed_ref=0 / me_range=64 / chroma_me=1 / trellis=2 / 8x8dct=1 / cqm=0 / deadzone=21,11 / fast_pskip=0 / chroma_qp_offset=-2 / threads=12 / sliced_threads=0 / nr=0 / decimate=0 / mbaff=0 / interlaced=0 / constrained_intra=0 / bframes=8 / b_pyramid=2 / b_adapt=2 / b_bias=0 / direct=3 / wpredb=1 / wpredp=2 / keyint=250 / keyint_min=25 / scenecut=40 / intra_refresh=0 / rc_lookahead=100 / rc=2pass / mbtree=1 / bitrate=14607 / ratetol=1.0 / qcomp=0.60 / qpmin=10 / qpmax=51 / qpstep=4 / cplxblur=20.0 / qblur=0.5 / vbv_maxrate=40000 / vbv_bufsize=40000 / ip_ratio=1.40 / aq=1:0.80 / pulldown=0 / nal_hrd=0
  35.  
  36. Audio
  37. ID                               : 2
  38. Format                           : DTS
  39. Format/Info                      : Digital Theater Systems
  40. Codec ID                         : A_DTS
  41. Duration                         : 2h 35mn
  42. Bit rate mode                    : Constant
  43. Bit rate                         : 1 510 Kbps
  44. Channel(s)                       : 6 channels
  45. Channel positions                : Front: L C R, Side: L R, LFE
  46. Sampling rate                    : 48.0 KHz
  47. Resolution                       : 24 bits
  48. Stream size                      : 1.64 GiB (9%)
  49. Title                            : D-Z0N3 HD - DTS MA CORE - DTS 5.1 1510 Kbps
  50. Language                         : French
  51.  
  52. Text #1
  53. ID                               : 3
  54. Format                           : UTF-8
  55. Codec ID                         : S_TEXT/UTF8
  56. Codec ID/Info                    : UTF-8 Plain Text
  57. Title                            : D-Z0N3 HD - SRT
  58. Language                         : English
  59.  
  60. Text #2
  61. ID                               : 4
  62. Format                           : UTF-8
  63. Codec ID                         : S_TEXT/UTF8
  64. Codec ID/Info                    : UTF-8 Plain Text
  65. Title                            : D-Z0N3 HD - SRT
  66. Language                         : Turkish
  67.  
  68. Text #3
  69. ID                               : 5
  70. Format                           : UTF-8
  71. Codec ID                         : S_TEXT/UTF8
  72. Codec ID/Info                    : UTF-8 Plain Text
  73. Title                            : D-Z0N3 HD - SRT
  74. Language                         : Polish
  75.  
  76. Menu
  77. 00:00:00.000                     : en:00:00:00.000
  78. 00:00:46.875                     : en:00:00:46.875
  79. 00:04:49.000                     : en:00:04:49.000
  80. 00:13:57.875                     : en:00:13:57.875
  81. 00:23:55.000                     : en:00:23:55.000
  82. 00:30:38.125                     : en:00:30:38.125
  83. 00:38:26.000                     : en:00:38:26.000
  84. 00:41:50.000                     : en:00:41:50.000
  85. 00:48:12.000                     : en:00:48:12.000
  86. 00:56:55.000                     : en:00:56:55.000
  87. 01:03:17.000                     : en:01:03:17.000
  88. 01:11:04.625                     : en:01:11:04.625
  89. 01:21:03.083                     : en:01:21:03.083
  90. 01:31:27.500                     : en:01:31:27.500
  91. 01:41:11.000                     : en:01:41:11.000
  92. 01:51:45.542                     : en:01:51:45.542
  93. 01:57:20.000                     : en:01:57:20.000
  94. 02:08:13.708                     : en:02:08:13.708
  95. 02:15:38.792                     : en:02:15:38.792
  96. 02:18:31.000                     : en:02:18:31.000
  97. 02:22:13.583                     : en:02:22:13.583
  98. 02:22:57.542                     : en:02:22:57.542
  99. 02:28:47.625                     : en:02:28:47.625
  100.  
  101.  
  102. [stijn@amalthea ~]$ mediainfo films/Green.Zone.720p.BluRay.x264-CBGB.mkv
  103. General
  104. Complete name                    : films/Green.Zone.720p.BluRay.x264-CBGB.mkv
  105. Format                           : Matroska
  106. File size                        : 6.56 GiB
  107. Duration                         : 1h 54mn
  108. Overall bit rate                 : 8 179 Kbps
  109. Encoded date                     : UTC 2008-06-03 22:54:05
  110. Writing application              : mkvmerge v2.9.8 ('C'est le bon') built on Aug 21 2009 13:21:42
  111. Writing library                  : libebml v0.7.7 + libmatroska v0.8.1
  112.  
  113. Video
  114. ID                               : 1
  115. Format                           : AVC
  116. Format/Info                      : Advanced Video Codec
  117. Format profile                   : High@L3.1
  118. Format settings, CABAC           : Yes
  119. Format settings, ReFrames        : 5 frames
  120. Muxing mode                      : Container profile=Unknown@3.1
  121. Codec ID                         : V_MPEG4/ISO/AVC
  122. Duration                         : 1h 54mn
  123. Bit rate                         : 6 506 Kbps
  124. Nominal bit rate                 : 6 673 Kbps
  125. Width                            : 1 280 pixels
  126. Height                           : 536 pixels
  127. Display aspect ratio             : 2.35:1
  128. Frame rate                       : 23.976 fps
  129. Resolution                       : 8 bits
  130. Colorimetry                      : 4:2:0
  131. Scan type                        : Progressive
  132. Bits/(Pixel*Frame)               : 0.396
  133. Stream size                      : 5.22 GiB (80%)
  134. Writing library                  : x264 core 98 r1629 2e81ce1
  135. Encoding settings                : cabac=1 / ref=5 / deblock=1:0:0 / analyse=0x3:0x113 / me=umh / subme=8 / psy=1 / psy_rd=1.00:0.20 / mixed_ref=1 / me_range=16 / chroma_me=1 / trellis=1 / 8x8dct=1 / cqm=0 / deadzone=21,11 / fast_pskip=1 / chroma_qp_offset=-3 / threads=12 / sliced_threads=0 / nr=0 / decimate=1 / interlaced=0 / constrained_intra=0 / bframes=3 / b_pyramid=2 / b_adapt=1 / b_bias=0 / direct=3 / weightb=1 / weightp=0 / keyint=250 / keyint_min=25 / scenecut=40 / intra_refresh=0 / rc_lookahead=40 / rc=2pass / mbtree=1 / bitrate=6673 / ratetol=1.0 / qcomp=0.60 / qpmin=10 / qpmax=51 / qpstep=4 / cplxblur=20.0 / qblur=0.5 / ip_ratio=1.40 / aq=1:1.00
  136. Language                         : English
  137.  
  138. Audio
  139. ID                               : 2
  140. Format                           : DTS
  141. Format/Info                      : Digital Theater Systems
  142. Codec ID                         : A_DTS
  143. Duration                         : 1h 54mn
  144. Bit rate mode                    : Constant
  145. Bit rate                         : 1 510 Kbps
  146. Channel(s)                       : 6 channels
  147. Channel positions                : Front: L C R, Side: L R, LFE
  148. Sampling rate                    : 48.0 KHz
  149. Resolution                       : 24 bits
  150. Stream size                      : 1.21 GiB (18%)
  151. Language                         : English
  152.  
  153. Text
  154. ID                               : 3
  155. Format                           : UTF-8
  156. Codec ID                         : S_TEXT/UTF8
  157. Codec ID/Info                    : UTF-8 Plain Text
  158. Language                         : English
  159.  
  160. Menu
  161. 00:00:00.000                     : en:00:00:00.000
  162. 00:02:46.458                     : en:00:02:46.458
  163. 00:10:00.975                     : en:00:10:00.975
  164. 00:16:36.370                     : en:00:16:36.370
  165. 00:21:01.010                     : en:00:21:01.010
  166. 00:25:39.872                     : en:00:25:39.872
  167. 00:33:30.300                     : en:00:33:30.300
  168. 00:40:27.508                     : en:00:40:27.508
  169. 00:45:25.431                     : en:00:45:25.431
  170. 00:50:59.223                     : en:00:50:59.223
  171. 00:55:15.270                     : en:00:55:15.270
  172. 01:00:21.284                     : en:01:00:21.284
  173. 01:05:09.989                     : en:01:05:09.989
  174. 01:11:02.508                     : en:01:11:02.508
  175. 01:18:28.621                     : en:01:18:28.621
  176. 01:22:58.265                     : en:01:22:58.265
  177. 01:27:00.882                     : en:01:27:00.882
  178. 01:34:39.716                     : en:01:34:39.716
  179. 01:39:15.658                     : en:01:39:15.658
  180. 01:44:58.626                     : en:01:44:58.626
clone this paste RAW Paste Data