This week only. Pastebin PRO Accounts Christmas Special! Don't miss out!Want more features on Pastebin? Sign Up, it's FREE!
Guest

Untitled

By: a guest on Jun 5th, 2013  |  syntax: None  |  size: 4.40 KB  |  views: 171  |  expires: Never
download  |  raw  |  embed  |  report abuse  |  print
Text below is selected. Please press Ctrl+C to copy to your clipboard. (⌘+C on Mac)
  1. General
  2. Format                                   : MPEG-4
  3. Format profile                           : Base Media / Version 2
  4. Codec ID                                 : mp42
  5. File size                                : 1.47 GiB
  6. Duration                                 : 1h 40mn
  7. Overall bit rate mode                    : Variable
  8. Overall bit rate                         : 2 077 Kbps
  9. Encoded date                             : UTC 2012-01-04 17:01:46
  10. Tagged date                              : UTC 2012-01-04 17:49:56
  11. Writing application                      : HandBrake 0.9.5 2011010300
  12.  
  13. Video
  14. ID                                       : 1
  15. Format                                   : AVC
  16. Format/Info                              : Advanced Video Codec
  17. Format profile                           : Main@L3.0
  18. Format settings, CABAC                   : Yes
  19. Format settings, ReFrames                : 4 frames
  20. Codec ID                                 : avc1
  21. Codec ID/Info                            : Advanced Video Coding
  22. Duration                                 : 1h 40mn
  23. Bit rate mode                            : Variable
  24. Bit rate                                 : 1 911 Kbps
  25. Width                                    : 720 pixels
  26. Height                                   : 480 pixels
  27. Display aspect ratio                     : 16:9
  28. Original display aspect ratio            : 16:9
  29. Frame rate mode                          : Variable
  30. Frame rate                               : 23.976 fps
  31. Minimum frame rate                       : 19.608 fps
  32. Maximum frame rate                       : 30.303 fps
  33. Standard                                 : NTSC
  34. Color space                              : YUV
  35. Chroma subsampling                       : 4:2:0
  36. Bit depth                                : 8 bits
  37. Scan type                                : Progressive
  38. Bits/(Pixel*Frame)                       : 0.231
  39. Stream size                              : 1.35 GiB (92%)
  40. Writing library                          : x264 core 112
  41. Encoding settings                        : cabac=1 / ref=2 / deblock=1:0:0 / analyse=0x1:0x111 / me=hex / subme=6 / psy=1 / psy_rd=1.00:0.00 / mixed_ref=0 / me_range=16 / chroma_me=1 / trellis=0 / 8x8dct=0 / cqm=0 / deadzone=21,11 / fast_pskip=1 / chroma_qp_offset=-2 / threads=3 / sliced_threads=0 / nr=0 / decimate=1 / interlaced=0 / constrained_intra=0 / bframes=2 / b_pyramid=2 / b_adapt=1 / b_bias=0 / direct=1 / weightb=0 / open_gop=0 / weightp=2 / keyint=600 / keyint_min=23 / scenecut=40 / intra_refresh=0 / rc_lookahead=40 / rc=2pass / mbtree=1 / bitrate=1911 / ratetol=1.0 / qcomp=0.60 / qpmin=3 / qpmax=51 / qpstep=4 / cplxblur=20.0 / qblur=0.5 / ip_ratio=1.40 / aq=1:1.00
  42. Encoded date                             : UTC 2012-01-04 17:01:46
  43. Tagged date                              : UTC 2012-01-04 17:49:56
  44. Color primaries                          : BT.601 NTSC
  45. Transfer characteristics                 : BT.709
  46. Matrix coefficients                      : BT.601
  47.  
  48. Audio
  49. ID                                       : 2
  50. Format                                   : AAC
  51. Format/Info                              : Advanced Audio Codec
  52. Format profile                           : LC
  53. Codec ID                                 : 40
  54. Duration                                 : 1h 40mn
  55. Bit rate mode                            : Variable
  56. Bit rate                                 : 160 Kbps
  57. Maximum bit rate                         : 309 Kbps
  58. Channel(s)                               : 2 channels
  59. Channel positions                        : Front: L R
  60. Sampling rate                            : 48.0 KHz
  61. Compression mode                         : Lossy
  62. Delay relative to video                  : 83ms
  63. Stream size                              : 115 MiB (8%)
  64. Language                                 : English
  65. Encoded date                             : UTC 2012-01-04 17:01:46
  66. Tagged date                              : UTC 2012-01-04 17:49:56
  67.  
  68. Text
  69. ID                                       : 3
  70. Format                                   : Apple text
  71. Codec ID                                 : text
  72. Duration                                 : 1h 40mn
  73. Bit rate mode                            : Variable
  74. Bit rate                                 : 0 bps
  75. Stream size                              : 279 Bytes (0%)
  76. Encoded date                             : UTC 2012-01-04 17:01:46
  77. Tagged date                              : UTC 2012-01-04 17:49:56
clone this paste RAW Paste Data