This week only. Pastebin PRO Accounts Christmas Special! Don't miss out!Want more features on Pastebin? Sign Up, it's FREE!
Guest

X-Spaceballs-wyild1

By: a guest on Apr 25th, 2010  |  syntax: None  |  size: 2.73 KB  |  views: 49  |  expires: Never
download  |  raw  |  embed  |  report abuse  |  print
Text below is selected. Please press Ctrl+C to copy to your clipboard. (⌘+C on Mac)
  1. mediainfo Spaceballs.1080p.BluRay.mkv
  2. General
  3. Complete name                    : Spaceballs.1080p.BluRay.mkv
  4. Format                           : Matroska
  5. File size                        : 7.93 GiB
  6. Duration                         : 1h 36mn
  7. Overall bit rate                 : 11.8 Mbps
  8. Encoded date                     : UTC 2009-05-21 09:40:44
  9. Writing application              : mkvmerge v2.0.2 ('You're My Flame') built on Feb 21 2007 23:40:55
  10. Writing library                  : libebml v0.7.7 + libmatroska v0.8.1
  11.  
  12. Video
  13. ID                               : 1
  14. Format                           : AVC
  15. Format/Info                      : Advanced Video Codec
  16. Format profile                   : High@L4.1
  17. Format settings, CABAC           : Yes
  18. Format settings, ReFrames        : 4 frames
  19. Muxing mode                      : Container profile=Unknown@4.1
  20. Codec ID                         : V_MPEG4/ISO/AVC
  21. Duration                         : 1h 36mn
  22. Bit rate                         : 10.1 Mbps
  23. Nominal bit rate                 : 10.3 Mbps
  24. Width                            : 1 920 pixels
  25. Height                           : 1 040 pixels
  26. Display aspect ratio             : 16:9
  27. Frame rate                       : 23.976 fps
  28. Resolution                       : 24 bits
  29. Colorimetry                      : 4:2:0
  30. Scan type                        : Progressive
  31. Bits/(Pixel*Frame)               : 0.210
  32. Stream size                      : 6.75 GiB (85%)
  33. Writing library                  : x264 core 67 r1137M 1fda882
  34. Encoding settings                : cabac=1 / ref=4 / deblock=1:-1:-1 / analyse=0x3:0x113 / me=umh / subme=7 / psy_rd=1.0:0.0 / mixed_ref=1 / me_range=16 / chroma_me=1 / trellis=2 / 8x8dct=1 / cqm=0 / deadzone=21,11 / chroma_qp_offset=-2 / threads=6 / nr=0 / decimate=1 / mbaff=0 / bframes=3 / b_pyramid=0 / b_adapt=2 / b_bias=0 / direct=3 / wpredb=1 / keyint=250 / keyint_min=25 / scenecut=40 / rc=2pass / bitrate=10288 / ratetol=1.0 / qcomp=0.60 / qpmin=10 / qpmax=51 / qpstep=4 / cplxblur=20.0 / qblur=0.5 / vbv_maxrate=50000 / vbv_bufsize=50000 / ip_ratio=1.40 / pb_ratio=1.30 / aq=1:1.00
  35. Language                         : English
  36.  
  37. Audio
  38. ID                               : 2
  39. Format                           : DTS
  40. Format/Info                      : Digital Theater Systems
  41. Codec ID                         : A_DTS
  42. Duration                         : 1h 36mn
  43. Bit rate mode                    : Constant
  44. Bit rate                         : 1 510 Kbps
  45. Channel(s)                       : 6 channels
  46. Channel positions                : Front: L C R, Surround: L R, LFE
  47. Sampling rate                    : 48.0 KHz
  48. Resolution                       : 24 bits
  49. Stream size                      : 1.01 GiB (13%)
  50. Language                         : English
clone this paste RAW Paste Data