This week only. Pastebin PRO Accounts Christmas Special! Don't miss out!Want more features on Pastebin? Sign Up, it's FREE!
Guest

xbmb debug

By: a guest on Mar 19th, 2011  |  syntax: None  |  size: 70.73 KB  |  views: 313  |  expires: Never
download  |  raw  |  embed  |  report abuse  |  print
Text below is selected. Please press Ctrl+C to copy to your clipboard. (⌘+C on Mac)
  1. 17:15:58 T:165269504 M: 98562048   DEBUG: CPlayerCoreFactory::GetPlayers(smb://PETER-SERVER/_HD.MOVIES/Blow/Blow.2001.1080p.BluRay.x264-CiNEFiLE.mkv)
  2. 17:15:58 T:165269504 M: 98562048   DEBUG: CPlayerSelectionRule::GetPlayers: considering rule: system rules
  3. 17:15:58 T:165269504 M: 98562048   DEBUG: CPlayerSelectionRule::GetPlayers: matches rule: system rules
  4. 17:15:58 T:165269504 M: 98562048   DEBUG: CPlayerSelectionRule::GetPlayers: considering rule: rtv
  5. 17:15:58 T:165269504 M: 98562048   DEBUG: CPlayerSelectionRule::GetPlayers: considering rule: hdhomerun/myth/rtmp/mms/udp
  6. 17:15:58 T:165269504 M: 98562048   DEBUG: CPlayerSelectionRule::GetPlayers: considering rule: lastfm/shout
  7. 17:15:58 T:165269504 M: 98562048   DEBUG: CPlayerSelectionRule::GetPlayers: considering rule: rtsp
  8. 17:15:58 T:165269504 M: 98562048   DEBUG: CPlayerSelectionRule::GetPlayers: considering rule: streams
  9. 17:15:58 T:165269504 M: 98562048   DEBUG: CPlayerSelectionRule::GetPlayers: considering rule: dvd
  10. 17:15:58 T:165269504 M: 98562048   DEBUG: CPlayerSelectionRule::GetPlayers: considering rule: dvdfile
  11. 17:15:58 T:165269504 M: 98562048   DEBUG: CPlayerSelectionRule::GetPlayers: considering rule: dvdimage
  12. 17:15:58 T:165269504 M: 98562048   DEBUG: CPlayerSelectionRule::GetPlayers: considering rule: sdp/asf
  13. 17:15:58 T:165269504 M: 98562048   DEBUG: CPlayerSelectionRule::GetPlayers: considering rule: nsv
  14. 17:15:58 T:165269504 M: 98562048   DEBUG: CPlayerCoreFactory::GetPlayers: matched 0 rules with players
  15. 17:15:58 T:165269504 M: 98562048   DEBUG: CPlayerCoreFactory::GetPlayers: adding videodefaultplayer (1)
  16. 17:15:58 T:165269504 M: 98562048   DEBUG: CPlayerCoreFactory::GetPlayers: for video=1, audio=0
  17. 17:15:58 T:165269504 M: 98562048   DEBUG: CPlayerCoreFactory::GetPlayers: for video=1, audio=1
  18. 17:15:58 T:165269504 M: 98562048   DEBUG: CPlayerCoreFactory::GetPlayers: adding player: DVDPlayer (1)
  19. 17:15:58 T:165269504 M: 98562048   DEBUG: CPlayerCoreFactory::GetPlayers: added 1 players
  20. 17:15:58 T:165269504 M: 98557952  NOTICE: DVDPlayer: Opening: smb://PETER-SERVER/_HD.MOVIES/Blow/Blow.2001.1080p.BluRay.x264-CiNEFiLE.mkv
  21. 17:15:58 T:165269504 M: 98557952 WARNING: CDVDMessageQueue(player)::Put MSGQ_NOT_INITIALIZED
  22. 17:15:58 T:155697152 M: 98553856   DEBUG: thread start, auto delete: 0
  23. 17:15:58 T:155697152 M: 98553856  NOTICE: Creating InputStream
  24. 17:15:58 T:155697152 M: 98553856   DEBUG: CFileSMB::Open - opened _HD.MOVIES/Blow/Blow.2001.1080p.BluRay.x264-CiNEFiLE.mkv, fd=10000
  25. 17:15:58 T:155697152 M: 98553856   DEBUG: ScanForExternalSubtitles: Searching for subtitles...
  26. 17:15:58 T:155697152 M: 98549760   DEBUG: OpenDir - Using authentication url smb://peter:spiderman@PETER%2dSERVER/%5fHD%2eMOVIES/Blow
  27. 17:15:58 T:155697152 M: 98549760   DEBUG: ScanForExternalSubtitles: END (total time: 74 ms)
  28. 17:15:58 T:155697152 M: 98549760  NOTICE: Creating Demuxer
  29. 17:15:58 T:137916416 M: 98549760   DEBUG: Thread 137916416 terminating
  30. 17:15:58 T:165269504 M: 98549760   DEBUG: ------ Window Init (DialogBusy.xml) ------
  31. 17:15:58 T:155697152 M: 98168832   DEBUG: Open - probing detected format [matroska,webm]
  32. 17:15:58 T:155697152 M: 98168832   DEBUG: Open - av_find_stream_info starting
  33. 17:15:59 T:155697152 M:107675648   DEBUG: Open - av_find_stream_info finished
  34. 17:15:59 T:155697152 M:107675648    INFO: ffmpeg[947C000]: Input #0, matroska,webm, from 'smb://PETER-SERVER/_HD.MOVIES/Blow/Blow.2001.1080p.BluRay.x264-CiNEFiLE.mkv':
  35. 17:15:59 T:155697152 M:107675648    INFO: ffmpeg[947C000]:   Duration: 02:03:26.40, start: 0.000000, bitrate: 9214 kb/s
  36. 17:15:59 T:155697152 M:107675648    INFO: ffmpeg[947C000]:     Stream #0.0(eng): Video: h264 (High), yuv420p, 1920x816, PAR 1:1 DAR 40:17, 23.98 fps, 24 tbr, 1k tbn, 47.95 tbc
  37. 17:15:59 T:155697152 M:107675648    INFO: ffmpeg[947C000]:     Stream #0.1(eng): Audio: ac3, 48000 Hz, 5.1, s16, 640 kb/s
  38. 17:15:59 T:155697152 M:107675648    INFO: ffmpeg[947C000]:     Stream #0.2(eng): Subtitle: [0][0][0][0] / 0x0000
  39. 17:15:59 T:155697152 M:107675648    INFO: ffmpeg[947C000]:     Stream #0.3(eng): Subtitle: [0][0][0][0] / 0x0000
  40. 17:15:59 T:155697152 M:107675648  NOTICE: Opening video stream: 0 source: 256
  41. 17:15:59 T:155697152 M:107675648  NOTICE: Creating video codec with codec id: 28
  42. 17:15:59 T:155697152 M:107675648   DEBUG: CDVDFactoryCodec: compiled in hardware support: VDADecoder:no VideoToolBoxDecoder:yes CrystalHD:no OpenMax:no
  43. 17:15:59 T:155697152 M:107675648    INFO: Apple VideoToolBox Decoder...
  44. 17:15:59 T:155697152 M:107675648   DEBUG: FactoryCodec - Video: vtb - Opening
  45. 17:15:59 T:155697152 M:107675648  NOTICE: Open - using avcC atom of size(40)
  46. 17:15:59 T:155697152 M: 94212096   DEBUG: FactoryCodec - Video: vtb-h264 - Opened
  47. 17:15:59 T:155697152 M: 94212096  NOTICE: Creating video thread
  48. 17:15:59 T:194842624 M: 94208000   DEBUG: thread start, auto delete: 0
  49. 17:15:59 T:155697152 M: 94208000  NOTICE: Opening audio stream: 1 source: 256
  50. 17:15:59 T:155697152 M: 94208000  NOTICE: Finding audio codec for: 86019
  51. 17:15:59 T:155697152 M: 94208000   DEBUG: FactoryCodec - Audio: PassthroughFFmpeg - Opening
  52. 17:15:59 T:155697152 M: 94208000    INFO: CDVDAudioCodecPassthroughFFmpeg::SetupMuxer - Trying to setup spdif muxer
  53. 17:15:59 T:155697152 M: 94208000    INFO: CDVDAudioCodecPassthroughFFmpeg::SetupMuxer - spdif muxer ready
  54. 17:15:59 T:155697152 M: 94208000   DEBUG: FactoryCodec - Audio: PassthroughFFmpeg - Opened
  55. 17:15:59 T:155697152 M: 94208000  NOTICE: Creating audio thread
  56. 17:15:59 T:198709248 M: 94199808   DEBUG: thread start, auto delete: 0
  57. 17:15:59 T:198709248 M: 94199808  NOTICE: running thread: CDVDPlayerAudio::Process()
  58. 17:15:59 T:155697152 M: 94199808  NOTICE: Opening Subtitle stream: 2 source: 256
  59. 17:15:59 T:155697152 M: 94199808   DEBUG: FactoryCodec - Overlay: Text Subtitle Decoder - Opening
  60. 17:15:59 T:155697152 M: 94199808   DEBUG: FactoryCodec - Overlay: Text Subtitle Decoder - Opened
  61. 17:15:59 T:155697152 M: 94199808   DEBUG: ReadEditDecisionLists - Checking for edit decision lists (EDL) on local drive or remote share for: smb://PETER-SERVER/_HD.MOVIES/Blow/Blow.2001.1080p.BluRay.x264-CiNEFiLE.mkv
  62. 17:15:59 T:155697152 M: 94199808   DEBUG: CDVDPlayer::SetCaching - caching state 2
  63. 17:15:59 T:198709248 M: 94199808  NOTICE: Creating audio device with codec id: 86019, channels: 2, sample rate: 48000, pass-through
  64. 17:15:59 T:198709248 M: 94199808    INFO: AudioRendererFactory:  not a explicit device, trying to autodetect.
  65. 17:15:59 T:198709248 M: 94199808   DEBUG: RemoveActiveDevice - Removing device 2
  66. 17:15:59 T:198709248 M: 94199808   DEBUG: SetActiveDevice - SetActiveDevice from 0 to 4
  67. 17:15:59 T:198709248 M: 94199808   DEBUG: RemoveActiveDevice - Removing device 0
  68. 17:15:59 T:198709248 M: 94199808   DEBUG: CIOSCoreAudioDevice::SetupInfo: Remote/IO Output Stream Bus 1 Format [lpcm] Mixable 2 Channel 16-bit Signed Integer (48000Hz)
  69. 17:15:59 T:198709248 M: 94199808   DEBUG: CIOSCoreAudioDevice::SetupInfo: Remote/IO Input Stream Bus 1 Format [lpcm] Mixable 2 Channel 16-bit Signed Integer (48000Hz)
  70. 17:15:59 T:198709248 M: 94199808   DEBUG: CIOSAudioRenderer::Initialize: Renderer Configuration - Chunk Len: 2048, Max Cache: 196608 (1024ms).
  71. 17:15:59 T:198709248 M: 94199808    INFO: CIOSAudioRenderer::Initialize: Successfully configured audio output.
  72. 17:15:59 T:198709248 M: 94199808   DEBUG: CIOSAudioRenderer::Initialize - Channels: 2 - SampleRate: 48000 - SampleBit: 16 - Resample false - IsMusic false - IsPassthrough true - audioDevice: Default Output Device
  73. 17:15:59 T:198709248 M: 94199808   DEBUG: CDVDPlayerAudio:: synctype set to 0: clock feedback
  74. 17:15:59 T:155697152 M: 94199808   DEBUG: CDVDPlayer::HandleMessages - player started 1
  75. 17:15:59 T:155697152 M: 94199808   DEBUG: CheckPlayerInit - dropping packet type:2 dts:83000.000000 to get to start point at 167000.000000
  76. 17:15:59 T:155697152 M: 94199808   DEBUG: CheckPlayerInit - dropping packet type:2 dts:42000.000000 to get to start point at 167000.000000
  77. 17:15:59 T:155697152 M: 94199808   DEBUG: CheckPlayerInit - dropping packet type:2 dts:125000.000000 to get to start point at 167000.000000
  78. 17:16:00 T:194842624 M: 90230784   DEBUG: LinuxRendererGL: Cleaning up GL resources
  79. 17:16:00 T:194842624 M: 90230784  NOTICE: running thread: video_thread
  80. 17:16:00 T:194842624 M: 90230784   DEBUG: CDVDPlayerVideo - CDVDMsg::GENERAL_SYNCHRONIZE
  81. 17:16:00 T:194842624 M: 90230784    INFO: CDVDPlayerVideo - Stillframe left, switching to normal playback
  82. 17:16:00 T:165269504 M: 90218496   DEBUG: CAnnouncementManager - Announcement: PlaybackStarted from xbmc
  83. 17:16:00 T:194842624 M: 84230144   DEBUG: CDVDPlayerVideo - CDVDMsg::GENERAL_RESYNC(167000.000000, 0)
  84. 17:16:00 T:165269504 M: 84217856   DEBUG: CGUIInfoManager::SetCurrentMovie(smb://PETER-SERVER/_HD.MOVIES/Blow/Blow.2001.1080p.BluRay.x264-CiNEFiLE.mkv)
  85. 17:16:00 T:165269504 M: 78569472   DEBUG: GetMovieId (smb://PETER-SERVER/_HD.MOVIES/Blow/Blow.2001.1080p.BluRay.x264-CiNEFiLE.mkv), query = select idMovie from movie where idFile=30
  86. 17:16:00 T:165269504 M: 78245888   DEBUG: Previous line repeats 1 times.
  87. 17:16:00 T:165269504 M: 78245888   DEBUG: SetCurrentMovie, got movie info!
  88. 17:16:00 T:165269504 M: 78245888   DEBUG:   Title = Blow
  89. 17:16:00 T:165269504 M: 69103616   DEBUG: ------ Window Deinit (DialogBusy.xml) ------
  90. 17:16:00 T:194842624 M: 65708032   DEBUG: GetPicture - VTBDecoderDecode dts(-4503599627370496.000000), pts(-4503599627370496.000000), old_pts(8509000.000000)
  91. 17:16:00 T:194842624 M: 65708032  NOTICE:  fps: 23.976024, pwidth: 1280, pheight: 543, dwidth: 1277, dheight: 543
  92. 17:16:00 T:194842624 M: 65708032   DEBUG: OutputPicture - change configuration. 1280x543. framerate: 23.98. format: BGRA
  93. 17:16:00 T:194842624 M: 66084864 WARNING: CRenderManager::Configure - timeout waiting for previous frame
  94. 17:16:00 T:194842624 M: 66084864  NOTICE: Display resolution DESKTOP : 1280x720 (12)
  95. 17:16:00 T:165269504 M: 66084864  NOTICE: Using GL_TEXTURE_2D
  96. 17:16:00 T:165269504 M: 66084864   DEBUG: GL: Requested render method: 0
  97. 17:16:00 T:165269504 M: 66084864  NOTICE: GL: Using CoreVideoRef RGBA render method
  98. 17:16:00 T:165269504 M: 66084864  NOTICE: GL: NPOT texture support detected
  99. 17:16:00 T:165269504 M: 66084864   DEBUG: Activating window ID: 12005
  100. 17:16:00 T:165269504 M: 66084864   DEBUG: Checking if window ID 12005 is locked.
  101. 17:16:00 T:165269504 M: 66084864   DEBUG: ------ Window Deinit (MyVideoNav.xml) ------
  102. 17:16:00 T:165269504 M: 66064384   DEBUG: ------ Window Init (VideoFullScreen.xml) ------
  103. 17:16:00 T:165269504 M: 66064384    INFO: Loading skin file: VideoFullScreen.xml
  104. 17:16:00 T:155697152 M: 77131776   DEBUG: CDVDPlayer::HandleMessages - player started 2
  105. 17:16:00 T:155697152 M: 77131776   DEBUG: CDVDPlayer::SetCaching - caching state 3
  106. 17:16:00 T:198709248 M: 73961472   DEBUG: CDVDPlayerAudio - CDVDMsg::GENERAL_RESYNC(32000.000000, 1)
  107. 17:16:00 T:198709248 M: 73961472   DEBUG: CDVDPlayerAudio:: Discontinuity - was:452.458333, should be:0.000000, error:-452.458333
  108. 17:16:00 T:155697152 M: 73961472   DEBUG: CDVDPlayer::SetCaching - caching state 0
  109. 17:16:02 T:165269504 M: 82501632   DEBUG: ------ Window Init (VideoOSD.xml) ------
  110. 17:16:02 T:165269504 M: 82501632    INFO: Loading skin file: VideoOSD.xml
  111. 17:16:05 T:165269504 M: 88477696   DEBUG: ExecuteXBMCAction : Translating ActivateWindow(124)
  112. 17:16:05 T:165269504 M: 88477696   DEBUG: ExecuteXBMCAction : To ActivateWindow(124)
  113. 17:16:05 T:165269504 M: 88477696   DEBUG: Activating window ID: 10124
  114. 17:16:05 T:165269504 M: 88477696   DEBUG: Checking if window ID 10124 is locked.
  115. 17:16:05 T:165269504 M: 88477696   DEBUG: ------ Window Init (VideoOSDSettings.xml) ------
  116. 17:16:05 T:165269504 M: 88477696    INFO: Loading skin file: VideoOSDSettings.xml
  117. 17:16:05 T:165269504 M: 88457216   ERROR: Control 30 in window 10124 has been asked to focus, but it can't
  118. 17:16:09 T:165269504 M: 83021824   DEBUG: ------ Window Deinit (VideoOSDSettings.xml) ------
  119. 17:16:12 T:194842624 M: 89030656   DEBUG: CPullupCorrection: detected pattern of length 1: 41708.33, frameduration: 41708.333333
  120. 17:16:19 T:165269504 M: 89059328   DEBUG: ------ Window Deinit (VideoOSD.xml) ------
  121. 17:16:25 T:153985024 M: 89792512   DEBUG: Thread 153985024 terminating (autodelete)
  122. 17:16:25 T:152641536 M: 89796608   DEBUG: Thread 152641536 terminating (autodelete)
  123. 17:17:06 T:165269504 M: 89784320  NOTICE: CDVDPlayer::CloseFile()
  124. 17:17:06 T:155697152 M: 89784320   DEBUG: CAnnouncementManager - Announcement: PlaybackSpeedChanged from xbmc
  125. 17:17:06 T:165269504 M: 89784320  NOTICE: DVDPlayer: waiting for threads to exit
  126. 17:17:06 T:155697152 M: 89784320  NOTICE: CDVDPlayer::OnExit()
  127. 17:17:06 T:155697152 M: 89784320  NOTICE: DVDPlayer: closing audio stream
  128. 17:17:06 T:155697152 M: 89784320  NOTICE: Closing audio stream
  129. 17:17:06 T:155697152 M: 89784320  NOTICE: Waiting for audio thread to exit
  130. 17:17:06 T:198709248 M: 89784320  NOTICE: thread end: CDVDPlayerAudio::OnExit()
  131. 17:17:06 T:198709248 M: 89784320   DEBUG: Thread 198709248 terminating
  132. 17:17:06 T:155697152 M: 89792512  NOTICE: Closing audio device
  133. 17:17:06 T:155697152 M: 89792512    INFO: CIOSAudioRenderer::Deinitialize: Renderer has been shut down.
  134. 17:17:06 T:155697152 M: 89788416    INFO: Previous line repeats 1 times.
  135. 17:17:06 T:155697152 M: 89788416  NOTICE: Deleting audio codec
  136. 17:17:06 T:155697152 M: 89784320  NOTICE: DVDPlayer: closing video stream
  137. 17:17:06 T:155697152 M: 89784320  NOTICE: Closing video stream
  138. 17:17:06 T:155697152 M: 89784320  NOTICE: waiting for video thread to exit
  139. 17:17:06 T:194842624 M: 89784320  NOTICE: thread end: video_thread
  140. 17:17:06 T:194842624 M: 89784320   DEBUG: Thread 194842624 terminating
  141. 17:17:06 T:155697152 M: 89796608  NOTICE: deleting video codec
  142. 17:17:06 T:155697152 M:108953600  NOTICE: DVDPlayer: closing subtitle stream
  143. 17:17:06 T:155697152 M:108953600  NOTICE: Closing subtitle stream
  144. 17:17:06 T:155697152 M:108953600  NOTICE: CDVDPlayer::OnExit() deleting demuxer
  145. 17:17:06 T:155697152 M:108957696  NOTICE: CDVDPlayer::OnExit() deleting input stream
  146. 17:17:06 T:155697152 M:108957696   DEBUG: CFileSMB::Close closing fd 10000
  147. 17:17:06 T:155697152 M:108957696   DEBUG: CAnnouncementManager - Announcement: PlaybackStopped from xbmc
  148. 17:17:06 T:155697152 M:108957696   DEBUG: Thread 155697152 terminating
  149. 17:17:06 T:165269504 M:108969984  NOTICE: DVDPlayer: finished waiting
  150. 17:17:06 T:165269504 M:108969984   DEBUG: LinuxRendererGL: Cleaning up GL resources
  151. 17:17:06 T:165269504 M:114601984   DEBUG: CGUIWindowManager::PreviousWindow: Deactivate
  152. 17:17:06 T:165269504 M:114601984   DEBUG: ------ Window Deinit (VideoFullScreen.xml) ------
  153. 17:17:07 T:165269504 M:114462720   DEBUG: CGUIWindowManager::PreviousWindow: Activate new
  154. 17:17:07 T:165269504 M:114462720   DEBUG: ------ Window Init (MyVideoNav.xml) ------
  155. 17:17:07 T:165269504 M:114462720    INFO: Loading skin file: MyVideoNav.xml
  156. 17:17:08 T:165269504 M:113967104   DEBUG: CGUIMediaWindow::GetDirectory (videodb://1/2/)
  157. 17:17:08 T:165269504 M:113967104   DEBUG:   ParentPath = [videodb://1/2/]
  158. 17:17:08 T:165269504 M:113967104   DEBUG: RunQuery took 1 ms for 0 items query: SELECT sets.idSet,sets.strSet,COUNT(1) AS c,count(files.playCount) FROM sets JOIN setlinkmovie ON sets.idSet=setlinkmovie.idSet JOIN movie ON setlinkmovie.idMovie=movie.idMovie JOIN files ON files.idFile=movie.idFile  GROUP BY sets.idSet HAVING c>1
  159. 17:17:08 T:165269504 M:113967104   DEBUG: RunQuery took 90 ms for 244 items query: select * from movieview WHERE movieview.idMovie NOT IN (SELECT idMovie FROM setlinkmovie s1 JOIN(SELECT idSet, COUNT(1) AS c FROM setlinkmovie GROUP BY idSet HAVING c>1) s2 ON s2.idSet=s1.idSet)
  160. 17:17:09 T:165269504 M:141754368   DEBUG: Saving fileitems [videodb://1/2/]
  161. 17:17:09 T:165269504 M:141754368   DEBUG:   -- items: 245, sort method: 25, ascending: true
  162. 17:17:09 T:137916416 M:141709312   DEBUG: thread start, auto delete: 0
  163. 17:17:09 T:152641536 M:126156800   DEBUG: thread start, auto delete: 1
  164. 17:17:10 T:165269504 M:122265600  NOTICE: CDVDPlayer::CloseFile()
  165. 17:17:10 T:165269504 M:122265600 WARNING: CDVDMessageQueue(player)::Put MSGQ_NOT_INITIALIZED
  166. 17:17:10 T:165269504 M:122265600  NOTICE: DVDPlayer: waiting for threads to exit
  167. 17:17:10 T:165269504 M:122265600  NOTICE: DVDPlayer: finished waiting
  168. 17:17:10 T:165269504 M:122265600   DEBUG: LinuxRendererGL: Cleaning up GL resources
  169. 17:17:10 T:152641536 M:122265600   DEBUG: DoWork - took 246 ms to load /private/var/stash/Applications/XBMC.frappliance/XBMCData/XBMCHome/addons/skin.confluence/media/DefaultVideo.png
  170. 17:17:10 T:165269504 M:122269696   DEBUG: CGUIAudioManager::Initialize
  171. 17:17:10 T:165269504 M:122269696   DEBUG: SECTION:UnloadDelayed(SECTION: LCODE)
  172. 17:17:10 T:152641536 M:122339328   DEBUG: DoWork - Saving file state for video item smb://PETER-SERVER/_HD.MOVIES/Blow/Blow.2001.1080p.BluRay.x264-CiNEFiLE.mkv
  173. 17:17:10 T:165269504 M:122048512   DEBUG: CGUIAudioManager::Initialize
  174. 17:17:10 T:152641536 M:121782272   DEBUG: CAnnouncementManager - Announcement: NewPlayCount from xbmc
  175. 17:17:13 T:153985024 M:120549376   DEBUG: thread start, auto delete: 1
  176. 17:17:14 T:193228800 M:120365056   DEBUG: Previous line repeats 2 times.
  177. 17:17:14 T:193228800 M:120365056   DEBUG: DoWork - took 142 ms to load special://masterprofile/Thumbnails/Video/6/63aad342.tbn
  178. 17:17:15 T:152641536 M:119107584   DEBUG: DoWork - took 1512 ms to load special://masterprofile/Thumbnails/Video/Fanart/09140380.tbn
  179. 17:17:15 T:192122880 M:119128064   DEBUG: DoWork - took 1603 ms to load special://masterprofile/Thumbnails/Video/Fanart/63aad342.tbn
  180. 17:17:16 T:153985024 M:119160832   DEBUG: DoWork - took 1559 ms to load special://masterprofile/Thumbnails/Video/Fanart/09140380.tbn
  181. 17:17:16 T:192122880 M:120295424   DEBUG: DoWork - took 621 ms to load special://masterprofile/Thumbnails/Video/Fanart/3605094a.tbn
  182. 17:17:16 T:152641536 M:120324096   DEBUG: DoWork - took 810 ms to load special://masterprofile/Thumbnails/Video/Fanart/dc215d02.tbn
  183. 17:17:16 T:193228800 M:120492032   DEBUG: DoWork - took 1712 ms to load special://masterprofile/Thumbnails/Video/Fanart/61890b83.tbn
  184. 17:17:16 T:153985024 M:120520704   DEBUG: DoWork - took 110 ms to load special://masterprofile/Thumbnails/Video/0/0c7d4021.tbn
  185. 17:17:17 T:165269504 M:119320576   DEBUG: CPlayerCoreFactory::GetPlayers(smb://PETER-SERVER/_HD.MOVIES/Avatar/cbgb-avatar.mkv)
  186. 17:17:17 T:165269504 M:119320576   DEBUG: CPlayerSelectionRule::GetPlayers: considering rule: system rules
  187. 17:17:17 T:165269504 M:119320576   DEBUG: CPlayerSelectionRule::GetPlayers: matches rule: system rules
  188. 17:17:17 T:165269504 M:119320576   DEBUG: CPlayerSelectionRule::GetPlayers: considering rule: rtv
  189. 17:17:17 T:165269504 M:119320576   DEBUG: CPlayerSelectionRule::GetPlayers: considering rule: hdhomerun/myth/rtmp/mms/udp
  190. 17:17:17 T:165269504 M:119320576   DEBUG: CPlayerSelectionRule::GetPlayers: considering rule: lastfm/shout
  191. 17:17:17 T:165269504 M:119320576   DEBUG: CPlayerSelectionRule::GetPlayers: considering rule: rtsp
  192. 17:17:17 T:165269504 M:119320576   DEBUG: CPlayerSelectionRule::GetPlayers: considering rule: streams
  193. 17:17:17 T:165269504 M:119320576   DEBUG: CPlayerSelectionRule::GetPlayers: considering rule: dvd
  194. 17:17:17 T:165269504 M:119320576   DEBUG: CPlayerSelectionRule::GetPlayers: considering rule: dvdfile
  195. 17:17:17 T:165269504 M:119320576   DEBUG: CPlayerSelectionRule::GetPlayers: considering rule: dvdimage
  196. 17:17:17 T:165269504 M:119320576   DEBUG: CPlayerSelectionRule::GetPlayers: considering rule: sdp/asf
  197. 17:17:17 T:165269504 M:119320576   DEBUG: CPlayerSelectionRule::GetPlayers: considering rule: nsv
  198. 17:17:17 T:165269504 M:119320576   DEBUG: CPlayerCoreFactory::GetPlayers: matched 0 rules with players
  199. 17:17:17 T:165269504 M:119320576   DEBUG: CPlayerCoreFactory::GetPlayers: adding videodefaultplayer (1)
  200. 17:17:17 T:165269504 M:119320576   DEBUG: CPlayerCoreFactory::GetPlayers: for video=1, audio=0
  201. 17:17:17 T:165269504 M:119320576   DEBUG: CPlayerCoreFactory::GetPlayers: for video=1, audio=1
  202. 17:17:17 T:165269504 M:119320576   DEBUG: CPlayerCoreFactory::GetPlayers: adding player: DVDPlayer (1)
  203. 17:17:17 T:165269504 M:119320576   DEBUG: CPlayerCoreFactory::GetPlayers: added 1 players
  204. 17:17:17 T:165269504 M:119320576  NOTICE: DVDPlayer: Opening: smb://PETER-SERVER/_HD.MOVIES/Avatar/cbgb-avatar.mkv
  205. 17:17:17 T:165269504 M:119320576 WARNING: CDVDMessageQueue(player)::Put MSGQ_NOT_INITIALIZED
  206. 17:17:17 T:190943232 M:119312384   DEBUG: thread start, auto delete: 0
  207. 17:17:17 T:190943232 M:119312384  NOTICE: Creating InputStream
  208. 17:17:17 T:190943232 M:119312384   DEBUG: CFileSMB::Open - opened _HD.MOVIES/Avatar/cbgb-avatar.mkv, fd=10000
  209. 17:17:17 T:190943232 M:119312384   DEBUG: ScanForExternalSubtitles: Searching for subtitles...
  210. 17:17:17 T:190943232 M:119308288   DEBUG: OpenDir - Using authentication url smb://peter:spiderman@PETER%2dSERVER/%5fHD%2eMOVIES/Avatar
  211. 17:17:17 T:190943232 M:119308288   DEBUG: ScanForExternalSubtitles: END (total time: 59 ms)
  212. 17:17:17 T:190943232 M:119308288  NOTICE: Creating Demuxer
  213. 17:17:17 T:190943232 M:119304192   DEBUG: Open - probing detected format [matroska,webm]
  214. 17:17:17 T:137916416 M:119304192   DEBUG: Thread 137916416 terminating
  215. 17:17:17 T:165269504 M:119287808   DEBUG: ------ Window Init (DialogBusy.xml) ------
  216. 17:17:17 T:190943232 M:118902784   DEBUG: Open - av_find_stream_info starting
  217. 17:17:17 T:192122880 M:118927360   DEBUG: DoWork - took 1027 ms to load special://masterprofile/Thumbnails/Video/Fanart/0c7d4021.tbn
  218. 17:17:18 T:190943232 M:110501888   DEBUG: Open - av_find_stream_info finished
  219. 17:17:18 T:190943232 M:110501888    INFO: ffmpeg[B619000]: Input #0, matroska,webm, from 'smb://PETER-SERVER/_HD.MOVIES/Avatar/cbgb-avatar.mkv':
  220. 17:17:18 T:190943232 M:110501888    INFO: ffmpeg[B619000]:   Duration: 02:41:41.69, start: 0.000000, bitrate: 7032 kb/s
  221. 17:17:18 T:190943232 M:110501888    INFO: ffmpeg[B619000]:     Chapter #0.0: start 0.000000, end 377.961000
  222. 17:17:18 T:190943232 M:110501888    INFO: ffmpeg[B619000]:     Metadata:
  223. 17:17:18 T:190943232 M:110501888    INFO: ffmpeg[B619000]:       title           : 00:00:00.000
  224. 17:17:18 T:190943232 M:110501888    INFO: ffmpeg[B619000]:     Chapter #0.1: start 377.961000, end 473.598000
  225. 17:17:18 T:190943232 M:110501888    INFO: ffmpeg[B619000]:     Metadata:
  226. 17:17:18 T:190943232 M:110501888    INFO: ffmpeg[B619000]:       title           : 00:06:17.961
  227. 17:17:18 T:190943232 M:110501888    INFO: ffmpeg[B619000]:     Chapter #0.2: start 473.598000, end 724.891000
  228. 17:17:18 T:190943232 M:110501888    INFO: ffmpeg[B619000]:     Metadata:
  229. 17:17:18 T:190943232 M:110501888    INFO: ffmpeg[B619000]:       title           : 00:07:53.598
  230. 17:17:18 T:190943232 M:110501888    INFO: ffmpeg[B619000]:     Chapter #0.3: start 724.891000, end 840.465000
  231. 17:17:18 T:190943232 M:110501888    INFO: ffmpeg[B619000]:     Metadata:
  232. 17:17:18 T:190943232 M:110501888    INFO: ffmpeg[B619000]:       title           : 00:12:04.891
  233. 17:17:18 T:190943232 M:110501888    INFO: ffmpeg[B619000]:     Chapter #0.4: start 840.465000, end 1200.574000
  234. 17:17:18 T:190943232 M:110501888    INFO: ffmpeg[B619000]:     Metadata:
  235. 17:17:18 T:190943232 M:110501888    INFO: ffmpeg[B619000]:       title           : 00:14:00.465
  236. 17:17:18 T:190943232 M:110501888    INFO: ffmpeg[B619000]:     Chapter #0.5: start 1200.574000, end 1440.230000
  237. 17:17:18 T:190943232 M:110501888    INFO: ffmpeg[B619000]:     Metadata:
  238. 17:17:18 T:190943232 M:110501888    INFO: ffmpeg[B619000]:       title           : 00:20:00.574
  239. 17:17:18 T:190943232 M:110501888    INFO: ffmpeg[B619000]:     Chapter #0.6: start 1440.230000, end 1613.278000
  240. 17:17:18 T:190943232 M:110501888    INFO: ffmpeg[B619000]:     Metadata:
  241. 17:17:18 T:190943232 M:110501888    INFO: ffmpeg[B619000]:       title           : 00:24:00.230
  242. 17:17:18 T:190943232 M:110501888    INFO: ffmpeg[B619000]:     Chapter #0.7: start 1613.278000, end 1901.900000
  243. 17:17:18 T:190943232 M:110501888    INFO: ffmpeg[B619000]:     Metadata:
  244. 17:17:18 T:190943232 M:110501888    INFO: ffmpeg[B619000]:       title           : 00:26:53.278
  245. 17:17:18 T:190943232 M:110501888    INFO: ffmpeg[B619000]:     Chapter #0.8: start 1901.900000, end 2013.428000
  246. 17:17:18 T:190943232 M:110501888    INFO: ffmpeg[B619000]:     Metadata:
  247. 17:17:18 T:190943232 M:110370816    INFO: ffmpeg[B619000]:       title           : 00:31:41.900
  248. 17:17:18 T:190943232 M:110370816    INFO: ffmpeg[B619000]:     Chapter #0.9: start 2013.428000, end 2143.850000
  249. 17:17:18 T:190943232 M:110370816    INFO: ffmpeg[B619000]:     Metadata:
  250. 17:17:18 T:190943232 M:110370816    INFO: ffmpeg[B619000]:       title           : 00:33:33.428
  251. 17:17:18 T:190943232 M:110370816    INFO: ffmpeg[B619000]:     Chapter #0.10: start 2143.850000, end 2611.859000
  252. 17:17:18 T:190943232 M:110370816    INFO: ffmpeg[B619000]:     Metadata:
  253. 17:17:18 T:190943232 M:110370816    INFO: ffmpeg[B619000]:       title           : 00:35:43.850
  254. 17:17:18 T:190943232 M:110370816    INFO: ffmpeg[B619000]:     Chapter #0.11: start 2611.859000, end 2963.627000
  255. 17:17:18 T:190943232 M:110370816    INFO: ffmpeg[B619000]:     Metadata:
  256. 17:17:18 T:190943232 M:110370816    INFO: ffmpeg[B619000]:       title           : 00:43:31.859
  257. 17:17:18 T:190943232 M:110370816    INFO: ffmpeg[B619000]:     Chapter #0.12: start 2963.627000, end 3269.975000
  258. 17:17:18 T:190943232 M:110370816    INFO: ffmpeg[B619000]:     Metadata:
  259. 17:17:18 T:190943232 M:110370816    INFO: ffmpeg[B619000]:       title           : 00:49:23.627
  260. 17:17:18 T:190943232 M:110370816    INFO: ffmpeg[B619000]:     Chapter #0.13: start 3269.975000, end 3596.051000
  261. 17:17:18 T:190943232 M:110370816    INFO: ffmpeg[B619000]:     Metadata:
  262. 17:17:18 T:190943232 M:110370816    INFO: ffmpeg[B619000]:       title           : 00:54:29.975
  263. 17:17:18 T:190943232 M:110370816    INFO: ffmpeg[B619000]:     Chapter #0.14: start 3596.051000, end 3910.198000
  264. 17:17:18 T:190943232 M:110370816    INFO: ffmpeg[B619000]:     Metadata:
  265. 17:17:18 T:190943232 M:110370816    INFO: ffmpeg[B619000]:       title           : 00:59:56.051
  266. 17:17:18 T:190943232 M:110370816    INFO: ffmpeg[B619000]:     Chapter #0.15: start 3910.198000, end 4296.417000
  267. 17:17:18 T:190943232 M:110370816    INFO: ffmpeg[B619000]:     Metadata:
  268. 17:17:18 T:190943232 M:110370816    INFO: ffmpeg[B619000]:       title           : 01:05:10.198
  269. 17:17:18 T:190943232 M:110370816    INFO: ffmpeg[B619000]:     Chapter #0.16: start 4296.417000, end 4511.006000
  270. 17:17:18 T:190943232 M:110370816    INFO: ffmpeg[B619000]:     Metadata:
  271. 17:17:18 T:190943232 M:110370816    INFO: ffmpeg[B619000]:       title           : 01:11:36.417
  272. 17:17:18 T:190943232 M:110370816    INFO: ffmpeg[B619000]:     Chapter #0.17: start 4511.006000, end 4829.116000
  273. 17:17:18 T:190943232 M:110370816    INFO: ffmpeg[B619000]:     Metadata:
  274. 17:17:18 T:190943232 M:110370816    INFO: ffmpeg[B619000]:       title           : 01:15:11.006
  275. 17:17:18 T:190943232 M:110370816    INFO: ffmpeg[B619000]:     Chapter #0.18: start 4829.116000, end 5081.910000
  276. 17:17:18 T:190943232 M:110370816    INFO: ffmpeg[B619000]:     Metadata:
  277. 17:17:18 T:190943232 M:110370816    INFO: ffmpeg[B619000]:       title           : 01:20:29.116
  278. 17:17:18 T:190943232 M:110370816    INFO: ffmpeg[B619000]:     Chapter #0.19: start 5081.910000, end 5764.801000
  279. 17:17:18 T:190943232 M:110370816    INFO: ffmpeg[B619000]:     Metadata:
  280. 17:17:18 T:190943232 M:110370816    INFO: ffmpeg[B619000]:       title           : 01:24:41.910
  281. 17:17:18 T:190943232 M:110370816    INFO: ffmpeg[B619000]:     Chapter #0.20: start 5764.801000, end 5875.786000
  282. 17:17:18 T:190943232 M:110370816    INFO: ffmpeg[B619000]:     Metadata:
  283. 17:17:18 T:190943232 M:110370816    INFO: ffmpeg[B619000]:       title           : 01:36:04.801
  284. 17:17:18 T:190943232 M:110370816    INFO: ffmpeg[B619000]:     Chapter #0.21: start 5875.786000, end 6273.100000
  285. 17:17:18 T:190943232 M:110370816    INFO: ffmpeg[B619000]:     Metadata:
  286. 17:17:18 T:190943232 M:110370816    INFO: ffmpeg[B619000]:       title           : 01:37:55.786
  287. 17:17:18 T:190943232 M:110370816    INFO: ffmpeg[B619000]:     Chapter #0.22: start 6273.100000, end 6495.489000
  288. 17:17:18 T:190943232 M:110370816    INFO: ffmpeg[B619000]:     Metadata:
  289. 17:17:18 T:190943232 M:110370816    INFO: ffmpeg[B619000]:       title           : 01:44:33.100
  290. 17:17:18 T:190943232 M:110370816    INFO: ffmpeg[B619000]:     Chapter #0.23: start 6495.489000, end 6833.868000
  291. 17:17:18 T:190943232 M:110370816    INFO: ffmpeg[B619000]:     Metadata:
  292. 17:17:18 T:190943232 M:110370816    INFO: ffmpeg[B619000]:       title           : 01:48:15.489
  293. 17:17:18 T:190943232 M:110370816    INFO: ffmpeg[B619000]:     Chapter #0.24: start 6833.868000, end 6932.884000
  294. 17:17:18 T:190943232 M:110370816    INFO: ffmpeg[B619000]:     Metadata:
  295. 17:17:18 T:190943232 M:110370816    INFO: ffmpeg[B619000]:       title           : 01:53:53.868
  296. 17:17:18 T:190943232 M:110370816    INFO: ffmpeg[B619000]:     Chapter #0.25: start 6932.884000, end 7118.820000
  297. 17:17:18 T:190943232 M:110370816    INFO: ffmpeg[B619000]:     Metadata:
  298. 17:17:18 T:190943232 M:110370816    INFO: ffmpeg[B619000]:       title           : 01:55:32.884
  299. 17:17:18 T:190943232 M:110370816    INFO: ffmpeg[B619000]:     Chapter #0.26: start 7118.820000, end 7325.568000
  300. 17:17:18 T:190943232 M:110370816    INFO: ffmpeg[B619000]:     Metadata:
  301. 17:17:18 T:190943232 M:110370816    INFO: ffmpeg[B619000]:       title           : 01:58:38.820
  302. 17:17:18 T:190943232 M:110370816    INFO: ffmpeg[B619000]:     Chapter #0.27: start 7325.568000, end 7533.859000
  303. 17:17:18 T:190943232 M:110370816    INFO: ffmpeg[B619000]:     Metadata:
  304. 17:17:18 T:190943232 M:110370816    INFO: ffmpeg[B619000]:       title           : 02:02:05.568
  305. 17:17:18 T:190943232 M:110370816    INFO: ffmpeg[B619000]:     Chapter #0.28: start 7533.859000, end 7801.835000
  306. 17:17:18 T:190943232 M:110370816    INFO: ffmpeg[B619000]:     Metadata:
  307. 17:17:18 T:190943232 M:110370816    INFO: ffmpeg[B619000]:       title           : 02:05:33.859
  308. 17:17:18 T:190943232 M:110370816    INFO: ffmpeg[B619000]:     Chapter #0.29: start 7801.835000, end 8167.284000
  309. 17:17:18 T:190943232 M:110370816    INFO: ffmpeg[B619000]:     Metadata:
  310. 17:17:18 T:190943232 M:110370816    INFO: ffmpeg[B619000]:       title           : 02:10:01.835
  311. 17:17:18 T:190943232 M:110370816    INFO: ffmpeg[B619000]:     Chapter #0.30: start 8167.284000, end 8390.841000
  312. 17:17:18 T:190943232 M:110370816    INFO: ffmpeg[B619000]:     Metadata:
  313. 17:17:18 T:190943232 M:110370816    INFO: ffmpeg[B619000]:       title           : 02:16:07.284
  314. 17:17:18 T:190943232 M:110370816    INFO: ffmpeg[B619000]:     Chapter #0.31: start 8390.841000, end 8750.325000
  315. 17:17:18 T:190943232 M:110370816    INFO: ffmpeg[B619000]:     Metadata:
  316. 17:17:18 T:190943232 M:110370816    INFO: ffmpeg[B619000]:       title           : 02:19:50.841
  317. 17:17:18 T:190943232 M:110370816    INFO: ffmpeg[B619000]:     Chapter #0.32: start 8750.325000, end 9074.065000
  318. 17:17:18 T:190943232 M:110370816    INFO: ffmpeg[B619000]:     Metadata:
  319. 17:17:18 T:190943232 M:110370816    INFO: ffmpeg[B619000]:       title           : 02:25:50.325
  320. 17:17:18 T:190943232 M:110370816    INFO: ffmpeg[B619000]:     Chapter #0.33: start 9074.065000, end 9305.296000
  321. 17:17:18 T:190943232 M:110370816    INFO: ffmpeg[B619000]:     Metadata:
  322. 17:17:18 T:190943232 M:110370816    INFO: ffmpeg[B619000]:       title           : 02:31:14.065
  323. 17:17:18 T:190943232 M:110370816    INFO: ffmpeg[B619000]:     Chapter #0.34: start 9305.296000, end 9701.692000
  324. 17:17:18 T:190943232 M:110370816    INFO: ffmpeg[B619000]:     Metadata:
  325. 17:17:18 T:190943232 M:110370816    INFO: ffmpeg[B619000]:       title           : 02:35:05.296
  326. 17:17:18 T:190943232 M:110370816    INFO: ffmpeg[B619000]:     Stream #0.0(eng): Video: h264 (High), yuv420p, 1280x720, PAR 1:1 DAR 16:9, 23.98 fps, 24 tbr, 1k tbn, 47.95 tbc
  327. 17:17:18 T:190943232 M:110370816    INFO: ffmpeg[B619000]:     Stream #0.1(eng): Audio: dca (DTS), 48000 Hz, 5.1, s16, 1536 kb/s
  328. 17:17:18 T:190943232 M:110370816    INFO: ffmpeg[B619000]:     Stream #0.2(eng): Subtitle: [0][0][0][0] / 0x0000
  329. 17:17:18 T:190943232 M:110370816  NOTICE: Opening video stream: 0 source: 256
  330. 17:17:18 T:190943232 M:110370816  NOTICE: Creating video codec with codec id: 28
  331. 17:17:18 T:190943232 M:110370816   DEBUG: CDVDFactoryCodec: compiled in hardware support: VDADecoder:no VideoToolBoxDecoder:yes CrystalHD:no OpenMax:no
  332. 17:17:18 T:190943232 M:110370816    INFO: Apple VideoToolBox Decoder...
  333. 17:17:18 T:190943232 M:110370816   DEBUG: FactoryCodec - Video: vtb - Opening
  334. 17:17:18 T:190943232 M:110370816  NOTICE: Open - using avcC atom of size(40)
  335. 17:17:18 T:190943232 M:101769216   DEBUG: FactoryCodec - Video: vtb-h264 - Opened
  336. 17:17:18 T:190943232 M:101769216  NOTICE: Creating video thread
  337. 17:17:18 T:191475712 M:101765120   DEBUG: thread start, auto delete: 0
  338. 17:17:18 T:190943232 M:101765120  NOTICE: Opening audio stream: 1 source: 256
  339. 17:17:18 T:190943232 M:101765120  NOTICE: Finding audio codec for: 86020
  340. 17:17:18 T:190943232 M:101761024   DEBUG: FactoryCodec - Audio: PassthroughFFmpeg - Opening
  341. 17:17:18 T:190943232 M:101761024    INFO: CDVDAudioCodecPassthroughFFmpeg::Open - Won't transcode for HDMI
  342. 17:17:18 T:190943232 M:101761024   DEBUG: FactoryCodec - Audio: PassthroughFFmpeg - Failed
  343. 17:17:18 T:190943232 M:101765120   DEBUG: FactoryCodec - Audio: FFmpeg - Opening
  344. 17:17:18 T:191475712 M: 97763328   DEBUG: LinuxRendererGL: Cleaning up GL resources
  345. 17:17:18 T:191475712 M: 97763328  NOTICE: running thread: video_thread
  346. 17:17:18 T:190943232 M: 97763328   DEBUG: FactoryCodec - Audio: FFmpeg - Opened
  347. 17:17:18 T:190943232 M: 97763328  NOTICE: Creating audio thread
  348. 17:17:18 T:192655360 M: 97759232   DEBUG: thread start, auto delete: 0
  349. 17:17:18 T:192655360 M: 97759232  NOTICE: running thread: CDVDPlayerAudio::Process()
  350. 17:17:18 T:190943232 M: 97759232  NOTICE: Opening Subtitle stream: 2 source: 256
  351. 17:17:18 T:190943232 M: 97759232   DEBUG: FactoryCodec - Overlay: Text Subtitle Decoder - Opening
  352. 17:17:18 T:190943232 M: 97759232   DEBUG: FactoryCodec - Overlay: Text Subtitle Decoder - Opened
  353. 17:17:18 T:190943232 M: 97759232   DEBUG: ReadEditDecisionLists - Checking for edit decision lists (EDL) on local drive or remote share for: smb://PETER-SERVER/_HD.MOVIES/Avatar/cbgb-avatar.mkv
  354. 17:17:18 T:190943232 M: 97759232   DEBUG: CDVDPlayer::SetCaching - caching state 2
  355. 17:17:18 T:191475712 M: 97759232   DEBUG: CDVDPlayerVideo - CDVDMsg::GENERAL_SYNCHRONIZE
  356. 17:17:18 T:191475712 M: 97759232    INFO: CDVDPlayerVideo - Stillframe left, switching to normal playback
  357. 17:17:18 T:192655360 M: 95891456  NOTICE: Creating audio device with codec id: 86020, channels: 6, sample rate: 48000, no pass-through
  358. 17:17:18 T:192655360 M: 95891456    INFO: AudioRendererFactory:  not a explicit device, trying to autodetect.
  359. 17:17:18 T:192655360 M: 95891456   DEBUG: SetActiveDevice - SetActiveDevice from 4 to 2
  360. 17:17:18 T:192655360 M: 95891456   DEBUG: RemoveActiveDevice - Removing device 4
  361. 17:17:18 T:192655360 M: 95891456   DEBUG: RemoveActiveDevice - Removing device 2
  362. 17:17:18 T:192655360 M: 95891456   DEBUG: SetActiveDevice - SetActiveDevice from 0 to 2
  363. 17:17:18 T:192655360 M: 95891456   DEBUG: RemoveActiveDevice - Removing device 0
  364. 17:17:18 T:192655360 M: 95891456    INFO: CPCMRemap: Configured speaker layout: 2.0
  365. 17:17:18 T:192655360 M: 95891456    INFO: CPCMRemap: I channel map: FL,FR,CE,LFE,SL,SR
  366. 17:17:18 T:192655360 M: 95891456   DEBUG: CPCMRemap: Forcing side channel map to back channels
  367. 17:17:18 T:192655360 M: 95891456    INFO: CPCMRemap: O channel map: FL,FR
  368. 17:17:18 T:192655360 M: 95891456   DEBUG: CPCMRemap: Downmix normalization is disabled
  369. 17:17:18 T:192655360 M: 95891456   DEBUG: CPCMRemap: FL = FL(1.000000) CE(0.707107) LFE(0.707107) BL(1.000000)
  370. 17:17:18 T:192655360 M: 95891456   DEBUG: CPCMRemap: FR = FR(1.000000) CE(0.707107) LFE(0.707107) BR(1.000000)
  371. 17:17:18 T:192655360 M: 95891456   DEBUG: CIOSAudioRenderer::InitializePCM: Requested channels changed from 6 to 2
  372. 17:17:18 T:192655360 M: 95891456   DEBUG: CIOSCoreAudioDevice::SetupInfo: Remote/IO Output Stream Bus 1 Format [lpcm] Mixable 2 Channel 16-bit Signed Integer (48000Hz)
  373. 17:17:18 T:192655360 M: 95891456   DEBUG: CIOSCoreAudioDevice::SetupInfo: Remote/IO Input Stream Bus 1 Format [lpcm] Mixable 2 Channel 16-bit Signed Integer (48000Hz)
  374. 17:17:18 T:192655360 M: 95891456   DEBUG: CIOSAudioRenderer::Initialize: Renderer Configuration - Chunk Len: 2048, Max Cache: 196608 (1024ms).
  375. 17:17:18 T:192655360 M: 95891456    INFO: CIOSAudioRenderer::Initialize: Successfully configured audio output.
  376. 17:17:18 T:192655360 M: 95891456   DEBUG: CIOSAudioRenderer::Initialize - Channels: 6 - SampleRate: 48000 - SampleBit: 16 - Resample false - IsMusic false - IsPassthrough false - audioDevice: Default Output Device
  377. 17:17:18 T:192655360 M: 95891456   DEBUG: CDVDPlayerAudio:: synctype set to 0: clock feedback
  378. 17:17:18 T:190943232 M: 95891456   DEBUG: CDVDPlayer::HandleMessages - player started 1
  379. 17:17:18 T:190943232 M: 95891456   DEBUG: CheckPlayerInit - dropping packet type:2 dts:83000.000000 to get to start point at 167000.000000
  380. 17:17:18 T:190943232 M: 95891456   DEBUG: CheckPlayerInit - dropping packet type:2 dts:42000.000000 to get to start point at 167000.000000
  381. 17:17:18 T:190943232 M: 95891456   DEBUG: CheckPlayerInit - dropping packet type:2 dts:125000.000000 to get to start point at 167000.000000
  382. 17:17:18 T:191475712 M: 92184576   DEBUG: CDVDPlayerVideo - CDVDMsg::GENERAL_RESYNC(167000.000000, 0)
  383. 17:17:18 T:165269504 M: 90300416   DEBUG: CAnnouncementManager - Announcement: PlaybackStarted from xbmc
  384. 17:17:18 T:165269504 M: 75407360   DEBUG: CGUIInfoManager::SetCurrentMovie(smb://PETER-SERVER/_HD.MOVIES/Avatar/cbgb-avatar.mkv)
  385. 17:17:18 T:191475712 M: 75407360   DEBUG: GetPicture - VTBDecoderDecode dts(-4503599627370496.000000), pts(-4503599627370496.000000), old_pts(65899000.000000)
  386. 17:17:18 T:191475712 M: 75407360  NOTICE:  fps: 23.976024, pwidth: 1280, pheight: 720, dwidth: 1280, dheight: 720
  387. 17:17:18 T:191475712 M: 75407360   DEBUG: OutputPicture - change configuration. 1280x720. framerate: 23.98. format: BGRA
  388. 17:17:18 T:165269504 M: 75407360   DEBUG: GetMovieId (smb://PETER-SERVER/_HD.MOVIES/Avatar/cbgb-avatar.mkv), query = select idMovie from movie where idFile=22
  389. 17:17:18 T:165269504 M: 75407360   DEBUG: Previous line repeats 1 times.
  390. 17:17:18 T:165269504 M: 75407360   DEBUG: SetCurrentMovie, got movie info!
  391. 17:17:18 T:165269504 M: 75407360   DEBUG:   Title = Avatar
  392. 17:17:18 T:165269504 M: 75403264   DEBUG: ------ Window Deinit (DialogBusy.xml) ------
  393. 17:17:18 T:191475712 M: 75436032 WARNING: CRenderManager::Configure - timeout waiting for previous frame
  394. 17:17:18 T:191475712 M: 75436032  NOTICE: Display resolution DESKTOP : 1280x720 (12)
  395. 17:17:18 T:190943232 M: 75436032   DEBUG: CDVDPlayer::HandleMessages - player started 2
  396. 17:17:18 T:190943232 M: 75436032   DEBUG: CDVDPlayer::SetCaching - caching state 3
  397. 17:17:18 T:192655360 M: 73564160   DEBUG: CDVDPlayerAudio:: Discontinuity - was:16012.750000, should be:0.000000, error:-16012.750000
  398. 17:17:18 T:192655360 M: 73564160   DEBUG: CDVDPlayerAudio - CDVDMsg::GENERAL_RESYNC(10000.000000, 1)
  399. 17:17:18 T:190943232 M: 76341248   DEBUG: CDVDPlayer::SetCaching - caching state 0
  400. 17:17:19 T:165269504 M: 76693504   DEBUG: Activating window ID: 12005
  401. 17:17:19 T:165269504 M: 76693504   DEBUG: Checking if window ID 12005 is locked.
  402. 17:17:19 T:165269504 M: 76693504   DEBUG: ------ Window Deinit (MyVideoNav.xml) ------
  403. 17:17:19 T:165269504 M: 76615680   DEBUG: ------ Window Init (VideoFullScreen.xml) ------
  404. 17:17:19 T:165269504 M: 76615680    INFO: Loading skin file: VideoFullScreen.xml
  405. 17:17:19 T:165269504 M: 76529664  NOTICE: Using GL_TEXTURE_2D
  406. 17:17:19 T:165269504 M: 76529664   DEBUG: GL: Requested render method: 0
  407. 17:17:19 T:165269504 M: 76529664  NOTICE: GL: Using CoreVideoRef RGBA render method
  408. 17:17:19 T:165269504 M: 76529664  NOTICE: GL: NPOT texture support detected
  409. 17:17:24 T:191475712 M: 96890880   DEBUG: CPullupCorrection: detected pattern of length 1: 41708.33, frameduration: 41708.333333
  410. 17:17:46 T:152641536 M: 96964608   DEBUG: Thread 152641536 terminating (autodelete)
  411. 17:17:46 T:193228800 M: 97099776   DEBUG: Thread 193228800 terminating (autodelete)
  412. 17:17:46 T:153985024 M: 97103872   DEBUG: Thread 153985024 terminating (autodelete)
  413. 17:17:47 T:192122880 M: 97107968   DEBUG: Thread 192122880 terminating (autodelete)
  414. 17:17:48 T:165269504 M: 97107968  NOTICE: CDVDPlayer::CloseFile()
  415. 17:17:48 T:190943232 M: 97107968   DEBUG: CAnnouncementManager - Announcement: PlaybackSpeedChanged from xbmc
  416. 17:17:48 T:165269504 M: 97107968  NOTICE: DVDPlayer: waiting for threads to exit
  417. 17:17:48 T:190943232 M: 96976896  NOTICE: CDVDPlayer::OnExit()
  418. 17:17:48 T:190943232 M: 96976896  NOTICE: DVDPlayer: closing audio stream
  419. 17:17:48 T:190943232 M: 96976896  NOTICE: Closing audio stream
  420. 17:17:48 T:190943232 M: 96976896  NOTICE: Waiting for audio thread to exit
  421. 17:17:48 T:192655360 M: 96976896  NOTICE: thread end: CDVDPlayerAudio::OnExit()
  422. 17:17:48 T:192655360 M: 96976896   DEBUG: Thread 192655360 terminating
  423. 17:17:48 T:190943232 M: 96985088  NOTICE: Closing audio device
  424. 17:17:48 T:190943232 M: 96985088    INFO: CIOSAudioRenderer::Deinitialize: Renderer has been shut down.
  425. 17:17:48 T:190943232 M: 96980992    INFO: Previous line repeats 1 times.
  426. 17:17:48 T:190943232 M: 96980992  NOTICE: Deleting audio codec
  427. 17:17:48 T:190943232 M: 96980992  NOTICE: DVDPlayer: closing video stream
  428. 17:17:48 T:190943232 M: 96980992  NOTICE: Closing video stream
  429. 17:17:48 T:190943232 M: 96980992  NOTICE: waiting for video thread to exit
  430. 17:17:48 T:191475712 M: 96980992  NOTICE: thread end: video_thread
  431. 17:17:48 T:191475712 M: 96980992   DEBUG: Thread 191475712 terminating
  432. 17:17:48 T:190943232 M: 96952320  NOTICE: deleting video codec
  433. 17:17:48 T:190943232 M:108969984  NOTICE: DVDPlayer: closing subtitle stream
  434. 17:17:48 T:190943232 M:108969984  NOTICE: Closing subtitle stream
  435. 17:17:48 T:190943232 M:108969984  NOTICE: CDVDPlayer::OnExit() deleting demuxer
  436. 17:17:48 T:190943232 M:108965888  NOTICE: CDVDPlayer::OnExit() deleting input stream
  437. 17:17:48 T:190943232 M:108965888   DEBUG: CFileSMB::Close closing fd 10000
  438. 17:17:48 T:190943232 M:108965888   DEBUG: CAnnouncementManager - Announcement: PlaybackStopped from xbmc
  439. 17:17:48 T:190943232 M:108965888   DEBUG: Thread 190943232 terminating
  440. 17:17:48 T:165269504 M:108982272  NOTICE: DVDPlayer: finished waiting
  441. 17:17:48 T:165269504 M:108982272   DEBUG: LinuxRendererGL: Cleaning up GL resources
  442. 17:17:48 T:165269504 M:116609024   DEBUG: CGUIWindowManager::PreviousWindow: Deactivate
  443. 17:17:48 T:165269504 M:116609024   DEBUG: ------ Window Deinit (VideoFullScreen.xml) ------
  444. 17:17:48 T:165269504 M:116604928   DEBUG: CGUIWindowManager::PreviousWindow: Activate new
  445. 17:17:48 T:165269504 M:116604928   DEBUG: ------ Window Init (MyVideoNav.xml) ------
  446. 17:17:48 T:165269504 M:116604928    INFO: Loading skin file: MyVideoNav.xml
  447. 17:17:49 T:165269504 M:116535296   DEBUG: CGUIMediaWindow::GetDirectory (videodb://1/2/)
  448. 17:17:49 T:165269504 M:116535296   DEBUG:   ParentPath = [videodb://1/2/]
  449. 17:17:49 T:165269504 M:116535296   DEBUG: RunQuery took 1 ms for 0 items query: SELECT sets.idSet,sets.strSet,COUNT(1) AS c,count(files.playCount) FROM sets JOIN setlinkmovie ON sets.idSet=setlinkmovie.idSet JOIN movie ON setlinkmovie.idMovie=movie.idMovie JOIN files ON files.idFile=movie.idFile  GROUP BY sets.idSet HAVING c>1
  450. 17:17:49 T:165269504 M:116535296   DEBUG: RunQuery took 88 ms for 244 items query: select * from movieview WHERE movieview.idMovie NOT IN (SELECT idMovie FROM setlinkmovie s1 JOIN(SELECT idSet, COUNT(1) AS c FROM setlinkmovie GROUP BY idSet HAVING c>1) s2 ON s2.idSet=s1.idSet)
  451. 17:17:51 T:165269504 M:141074432   DEBUG: Saving fileitems [videodb://1/2/]
  452. 17:17:51 T:165269504 M:141074432   DEBUG:   -- items: 245, sort method: 25, ascending: true
  453. 17:17:51 T:137916416 M:141074432   DEBUG: thread start, auto delete: 0
  454. 17:17:51 T:165269504 M:120274944  NOTICE: CDVDPlayer::CloseFile()
  455. 17:17:51 T:165269504 M:120274944 WARNING: CDVDMessageQueue(player)::Put MSGQ_NOT_INITIALIZED
  456. 17:17:51 T:165269504 M:120274944  NOTICE: DVDPlayer: waiting for threads to exit
  457. 17:17:51 T:165269504 M:120274944  NOTICE: DVDPlayer: finished waiting
  458. 17:17:51 T:165269504 M:120274944   DEBUG: LinuxRendererGL: Cleaning up GL resources
  459. 17:17:51 T:165269504 M:120274944   DEBUG: CGUIAudioManager::Initialize
  460. 17:17:51 T:152641536 M:120270848   DEBUG: thread start, auto delete: 1
  461. 17:17:51 T:165269504 M:120270848   DEBUG: SECTION:UnloadDelayed(SECTION: LCODE)
  462. 17:17:51 T:152641536 M:120496128   DEBUG: DoWork - Saving file state for video item smb://PETER-SERVER/_HD.MOVIES/Avatar/cbgb-avatar.mkv
  463. 17:17:52 T:165269504 M:120225792   DEBUG: CGUIAudioManager::Initialize
  464. 17:17:52 T:152641536 M:119746560   DEBUG: CAnnouncementManager - Announcement: NewPlayCount from xbmc
  465. 17:17:54 T:165269504 M:118931456   DEBUG: CPlayerCoreFactory::GetPlayers(smb://PETER-SERVER/_HD.MOVIES/Avatar/cbgb-avatar.mkv)
  466. 17:17:54 T:165269504 M:118931456   DEBUG: CPlayerSelectionRule::GetPlayers: considering rule: system rules
  467. 17:17:54 T:165269504 M:118931456   DEBUG: CPlayerSelectionRule::GetPlayers: matches rule: system rules
  468. 17:17:54 T:165269504 M:118931456   DEBUG: CPlayerSelectionRule::GetPlayers: considering rule: rtv
  469. 17:17:54 T:165269504 M:118931456   DEBUG: CPlayerSelectionRule::GetPlayers: considering rule: hdhomerun/myth/rtmp/mms/udp
  470. 17:17:54 T:165269504 M:118931456   DEBUG: CPlayerSelectionRule::GetPlayers: considering rule: lastfm/shout
  471. 17:17:54 T:165269504 M:118931456   DEBUG: CPlayerSelectionRule::GetPlayers: considering rule: rtsp
  472. 17:17:54 T:165269504 M:118931456   DEBUG: CPlayerSelectionRule::GetPlayers: considering rule: streams
  473. 17:17:54 T:165269504 M:118931456   DEBUG: CPlayerSelectionRule::GetPlayers: considering rule: dvd
  474. 17:17:54 T:165269504 M:118931456   DEBUG: CPlayerSelectionRule::GetPlayers: considering rule: dvdfile
  475. 17:17:54 T:165269504 M:118931456   DEBUG: CPlayerSelectionRule::GetPlayers: considering rule: dvdimage
  476. 17:17:54 T:165269504 M:118931456   DEBUG: CPlayerSelectionRule::GetPlayers: considering rule: sdp/asf
  477. 17:17:54 T:165269504 M:118931456   DEBUG: CPlayerSelectionRule::GetPlayers: considering rule: nsv
  478. 17:17:54 T:165269504 M:118931456   DEBUG: CPlayerCoreFactory::GetPlayers: matched 0 rules with players
  479. 17:17:54 T:165269504 M:118931456   DEBUG: CPlayerCoreFactory::GetPlayers: adding videodefaultplayer (1)
  480. 17:17:54 T:165269504 M:118931456   DEBUG: CPlayerCoreFactory::GetPlayers: for video=1, audio=0
  481. 17:17:54 T:165269504 M:118931456   DEBUG: CPlayerCoreFactory::GetPlayers: for video=1, audio=1
  482. 17:17:54 T:165269504 M:118931456   DEBUG: CPlayerCoreFactory::GetPlayers: adding player: DVDPlayer (1)
  483. 17:17:54 T:165269504 M:118931456   DEBUG: CPlayerCoreFactory::GetPlayers: added 1 players
  484. 17:17:54 T:165269504 M:118927360  NOTICE: DVDPlayer: Opening: smb://PETER-SERVER/_HD.MOVIES/Avatar/cbgb-avatar.mkv
  485. 17:17:54 T:165269504 M:118927360 WARNING: CDVDMessageQueue(player)::Put MSGQ_NOT_INITIALIZED
  486. 17:17:54 T:153985024 M:118923264   DEBUG: thread start, auto delete: 0
  487. 17:17:54 T:153985024 M:118923264  NOTICE: Creating InputStream
  488. 17:17:54 T:153985024 M:118923264   DEBUG: CFileSMB::Open - opened _HD.MOVIES/Avatar/cbgb-avatar.mkv, fd=10000
  489. 17:17:54 T:153985024 M:118923264   DEBUG: ScanForExternalSubtitles: Searching for subtitles...
  490. 17:17:54 T:153985024 M:118919168   DEBUG: OpenDir - Using authentication url smb://peter:spiderman@PETER%2dSERVER/%5fHD%2eMOVIES/Avatar
  491. 17:17:54 T:153985024 M:118919168   DEBUG: ScanForExternalSubtitles: END (total time: 60 ms)
  492. 17:17:54 T:153985024 M:118919168  NOTICE: Creating Demuxer
  493. 17:17:54 T:153985024 M:118915072   DEBUG: Open - probing detected format [matroska,webm]
  494. 17:17:54 T:153985024 M:118915072   DEBUG: Open - av_find_stream_info starting
  495. 17:17:54 T:165269504 M:118915072   DEBUG: ------ Window Init (DialogBusy.xml) ------
  496. 17:17:54 T:137916416 M:118489088   DEBUG: Thread 137916416 terminating
  497. 17:17:55 T:153985024 M:118489088   DEBUG: Open - av_find_stream_info finished
  498. 17:17:55 T:153985024 M:118489088    INFO: ffmpeg[92DA000]: Input #0, matroska,webm, from 'smb://PETER-SERVER/_HD.MOVIES/Avatar/cbgb-avatar.mkv':
  499. 17:17:55 T:153985024 M:118489088    INFO: ffmpeg[92DA000]:   Duration: 02:41:41.69, start: 0.000000, bitrate: 7032 kb/s
  500. 17:17:55 T:153985024 M:118489088    INFO: ffmpeg[92DA000]:     Chapter #0.0: start 0.000000, end 377.961000
  501. 17:17:55 T:153985024 M:118489088    INFO: ffmpeg[92DA000]:     Metadata:
  502. 17:17:55 T:153985024 M:118489088    INFO: ffmpeg[92DA000]:       title           : 00:00:00.000
  503. 17:17:55 T:153985024 M:118489088    INFO: ffmpeg[92DA000]:     Chapter #0.1: start 377.961000, end 473.598000
  504. 17:17:55 T:153985024 M:118489088    INFO: ffmpeg[92DA000]:     Metadata:
  505. 17:17:55 T:153985024 M:118489088    INFO: ffmpeg[92DA000]:       title           : 00:06:17.961
  506. 17:17:55 T:153985024 M:118489088    INFO: ffmpeg[92DA000]:     Chapter #0.2: start 473.598000, end 724.891000
  507. 17:17:55 T:153985024 M:118489088    INFO: ffmpeg[92DA000]:     Metadata:
  508. 17:17:55 T:153985024 M:118489088    INFO: ffmpeg[92DA000]:       title           : 00:07:53.598
  509. 17:17:55 T:153985024 M:118489088    INFO: ffmpeg[92DA000]:     Chapter #0.3: start 724.891000, end 840.465000
  510. 17:17:55 T:153985024 M:118489088    INFO: ffmpeg[92DA000]:     Metadata:
  511. 17:17:55 T:153985024 M:118489088    INFO: ffmpeg[92DA000]:       title           : 00:12:04.891
  512. 17:17:55 T:153985024 M:118489088    INFO: ffmpeg[92DA000]:     Chapter #0.4: start 840.465000, end 1200.574000
  513. 17:17:55 T:153985024 M:118489088    INFO: ffmpeg[92DA000]:     Metadata:
  514. 17:17:55 T:153985024 M:118489088    INFO: ffmpeg[92DA000]:       title           : 00:14:00.465
  515. 17:17:55 T:153985024 M:118489088    INFO: ffmpeg[92DA000]:     Chapter #0.5: start 1200.574000, end 1440.230000
  516. 17:17:55 T:153985024 M:118489088    INFO: ffmpeg[92DA000]:     Metadata:
  517. 17:17:55 T:153985024 M:118489088    INFO: ffmpeg[92DA000]:       title           : 00:20:00.574
  518. 17:17:55 T:153985024 M:118489088    INFO: ffmpeg[92DA000]:     Chapter #0.6: start 1440.230000, end 1613.278000
  519. 17:17:55 T:153985024 M:118489088    INFO: ffmpeg[92DA000]:     Metadata:
  520. 17:17:55 T:153985024 M:118489088    INFO: ffmpeg[92DA000]:       title           : 00:24:00.230
  521. 17:17:55 T:153985024 M:118489088    INFO: ffmpeg[92DA000]:     Chapter #0.7: start 1613.278000, end 1901.900000
  522. 17:17:55 T:153985024 M:118489088    INFO: ffmpeg[92DA000]:     Metadata:
  523. 17:17:55 T:153985024 M:118489088    INFO: ffmpeg[92DA000]:       title           : 00:26:53.278
  524. 17:17:55 T:153985024 M:118489088    INFO: ffmpeg[92DA000]:     Chapter #0.8: start 1901.900000, end 2013.428000
  525. 17:17:55 T:153985024 M:118489088    INFO: ffmpeg[92DA000]:     Metadata:
  526. 17:17:55 T:153985024 M:118489088    INFO: ffmpeg[92DA000]:       title           : 00:31:41.900
  527. 17:17:55 T:153985024 M:118489088    INFO: ffmpeg[92DA000]:     Chapter #0.9: start 2013.428000, end 2143.850000
  528. 17:17:55 T:153985024 M:118489088    INFO: ffmpeg[92DA000]:     Metadata:
  529. 17:17:55 T:153985024 M:118489088    INFO: ffmpeg[92DA000]:       title           : 00:33:33.428
  530. 17:17:55 T:153985024 M:118489088    INFO: ffmpeg[92DA000]:     Chapter #0.10: start 2143.850000, end 2611.859000
  531. 17:17:55 T:153985024 M:118489088    INFO: ffmpeg[92DA000]:     Metadata:
  532. 17:17:55 T:153985024 M:118489088    INFO: ffmpeg[92DA000]:       title           : 00:35:43.850
  533. 17:17:55 T:153985024 M:118489088    INFO: ffmpeg[92DA000]:     Chapter #0.11: start 2611.859000, end 2963.627000
  534. 17:17:55 T:153985024 M:118489088    INFO: ffmpeg[92DA000]:     Metadata:
  535. 17:17:55 T:153985024 M:118489088    INFO: ffmpeg[92DA000]:       title           : 00:43:31.859
  536. 17:17:55 T:153985024 M:118489088    INFO: ffmpeg[92DA000]:     Chapter #0.12: start 2963.627000, end 3269.975000
  537. 17:17:55 T:153985024 M:118489088    INFO: ffmpeg[92DA000]:     Metadata:
  538. 17:17:55 T:153985024 M:118489088    INFO: ffmpeg[92DA000]:       title           : 00:49:23.627
  539. 17:17:55 T:153985024 M:118489088    INFO: ffmpeg[92DA000]:     Chapter #0.13: start 3269.975000, end 3596.051000
  540. 17:17:55 T:153985024 M:118489088    INFO: ffmpeg[92DA000]:     Metadata:
  541. 17:17:55 T:153985024 M:118489088    INFO: ffmpeg[92DA000]:       title           : 00:54:29.975
  542. 17:17:55 T:153985024 M:118489088    INFO: ffmpeg[92DA000]:     Chapter #0.14: start 3596.051000, end 3910.198000
  543. 17:17:55 T:153985024 M:118489088    INFO: ffmpeg[92DA000]:     Metadata:
  544. 17:17:55 T:153985024 M:118489088    INFO: ffmpeg[92DA000]:       title           : 00:59:56.051
  545. 17:17:55 T:153985024 M:118489088    INFO: ffmpeg[92DA000]:     Chapter #0.15: start 3910.198000, end 4296.417000
  546. 17:17:55 T:153985024 M:118489088    INFO: ffmpeg[92DA000]:     Metadata:
  547. 17:17:55 T:153985024 M:118489088    INFO: ffmpeg[92DA000]:       title           : 01:05:10.198
  548. 17:17:55 T:153985024 M:118489088    INFO: ffmpeg[92DA000]:     Chapter #0.16: start 4296.417000, end 4511.006000
  549. 17:17:55 T:153985024 M:118489088    INFO: ffmpeg[92DA000]:     Metadata:
  550. 17:17:55 T:153985024 M:118489088    INFO: ffmpeg[92DA000]:       title           : 01:11:36.417
  551. 17:17:55 T:153985024 M:118489088    INFO: ffmpeg[92DA000]:     Chapter #0.17: start 4511.006000, end 4829.116000
  552. 17:17:55 T:153985024 M:118489088    INFO: ffmpeg[92DA000]:     Metadata:
  553. 17:17:55 T:153985024 M:118489088    INFO: ffmpeg[92DA000]:       title           : 01:15:11.006
  554. 17:17:55 T:153985024 M:118489088    INFO: ffmpeg[92DA000]:     Chapter #0.18: start 4829.116000, end 5081.910000
  555. 17:17:55 T:153985024 M:118489088    INFO: ffmpeg[92DA000]:     Metadata:
  556. 17:17:55 T:153985024 M:118489088    INFO: ffmpeg[92DA000]:       title           : 01:20:29.116
  557. 17:17:55 T:153985024 M:118489088    INFO: ffmpeg[92DA000]:     Chapter #0.19: start 5081.910000, end 5764.801000
  558. 17:17:55 T:153985024 M:118489088    INFO: ffmpeg[92DA000]:     Metadata:
  559. 17:17:55 T:153985024 M:118489088    INFO: ffmpeg[92DA000]:       title           : 01:24:41.910
  560. 17:17:55 T:153985024 M:118489088    INFO: ffmpeg[92DA000]:     Chapter #0.20: start 5764.801000, end 5875.786000
  561. 17:17:55 T:153985024 M:118489088    INFO: ffmpeg[92DA000]:     Metadata:
  562. 17:17:55 T:153985024 M:118489088    INFO: ffmpeg[92DA000]:       title           : 01:36:04.801
  563. 17:17:55 T:153985024 M:118489088    INFO: ffmpeg[92DA000]:     Chapter #0.21: start 5875.786000, end 6273.100000
  564. 17:17:55 T:153985024 M:118489088    INFO: ffmpeg[92DA000]:     Metadata:
  565. 17:17:55 T:153985024 M:118489088    INFO: ffmpeg[92DA000]:       title           : 01:37:55.786
  566. 17:17:55 T:153985024 M:118489088    INFO: ffmpeg[92DA000]:     Chapter #0.22: start 6273.100000, end 6495.489000
  567. 17:17:55 T:153985024 M:118489088    INFO: ffmpeg[92DA000]:     Metadata:
  568. 17:17:55 T:153985024 M:118489088    INFO: ffmpeg[92DA000]:       title           : 01:44:33.100
  569. 17:17:55 T:153985024 M:118489088    INFO: ffmpeg[92DA000]:     Chapter #0.23: start 6495.489000, end 6833.868000
  570. 17:17:55 T:153985024 M:118489088    INFO: ffmpeg[92DA000]:     Metadata:
  571. 17:17:55 T:153985024 M:118489088    INFO: ffmpeg[92DA000]:       title           : 01:48:15.489
  572. 17:17:55 T:153985024 M:118489088    INFO: ffmpeg[92DA000]:     Chapter #0.24: start 6833.868000, end 6932.884000
  573. 17:17:55 T:153985024 M:118489088    INFO: ffmpeg[92DA000]:     Metadata:
  574. 17:17:55 T:153985024 M:118489088    INFO: ffmpeg[92DA000]:       title           : 01:53:53.868
  575. 17:17:55 T:153985024 M:118489088    INFO: ffmpeg[92DA000]:     Chapter #0.25: start 6932.884000, end 7118.820000
  576. 17:17:55 T:153985024 M:118489088    INFO: ffmpeg[92DA000]:     Metadata:
  577. 17:17:55 T:153985024 M:118489088    INFO: ffmpeg[92DA000]:       title           : 01:55:32.884
  578. 17:17:55 T:153985024 M:118489088    INFO: ffmpeg[92DA000]:     Chapter #0.26: start 7118.820000, end 7325.568000
  579. 17:17:55 T:153985024 M:118489088    INFO: ffmpeg[92DA000]:     Metadata:
  580. 17:17:55 T:153985024 M:118489088    INFO: ffmpeg[92DA000]:       title           : 01:58:38.820
  581. 17:17:55 T:153985024 M:118489088    INFO: ffmpeg[92DA000]:     Chapter #0.27: start 7325.568000, end 7533.859000
  582. 17:17:55 T:153985024 M:118489088    INFO: ffmpeg[92DA000]:     Metadata:
  583. 17:17:55 T:153985024 M:118489088    INFO: ffmpeg[92DA000]:       title           : 02:02:05.568
  584. 17:17:55 T:153985024 M:118489088    INFO: ffmpeg[92DA000]:     Chapter #0.28: start 7533.859000, end 7801.835000
  585. 17:17:55 T:153985024 M:118489088    INFO: ffmpeg[92DA000]:     Metadata:
  586. 17:17:55 T:153985024 M:118489088    INFO: ffmpeg[92DA000]:       title           : 02:05:33.859
  587. 17:17:55 T:153985024 M:118489088    INFO: ffmpeg[92DA000]:     Chapter #0.29: start 7801.835000, end 8167.284000
  588. 17:17:55 T:153985024 M:118489088    INFO: ffmpeg[92DA000]:     Metadata:
  589. 17:17:55 T:153985024 M:118489088    INFO: ffmpeg[92DA000]:       title           : 02:10:01.835
  590. 17:17:55 T:153985024 M:118489088    INFO: ffmpeg[92DA000]:     Chapter #0.30: start 8167.284000, end 8390.841000
  591. 17:17:55 T:153985024 M:118489088    INFO: ffmpeg[92DA000]:     Metadata:
  592. 17:17:55 T:153985024 M:118489088    INFO: ffmpeg[92DA000]:       title           : 02:16:07.284
  593. 17:17:55 T:153985024 M:118489088    INFO: ffmpeg[92DA000]:     Chapter #0.31: start 8390.841000, end 8750.325000
  594. 17:17:55 T:153985024 M:118489088    INFO: ffmpeg[92DA000]:     Metadata:
  595. 17:17:55 T:153985024 M:118489088    INFO: ffmpeg[92DA000]:       title           : 02:19:50.841
  596. 17:17:55 T:153985024 M:118489088    INFO: ffmpeg[92DA000]:     Chapter #0.32: start 8750.325000, end 9074.065000
  597. 17:17:55 T:153985024 M:118489088    INFO: ffmpeg[92DA000]:     Metadata:
  598. 17:17:55 T:153985024 M:118493184    INFO: ffmpeg[92DA000]:       title           : 02:25:50.325
  599. 17:17:55 T:153985024 M:118493184    INFO: ffmpeg[92DA000]:     Chapter #0.33: start 9074.065000, end 9305.296000
  600. 17:17:55 T:153985024 M:118493184    INFO: ffmpeg[92DA000]:     Metadata:
  601. 17:17:55 T:153985024 M:118493184    INFO: ffmpeg[92DA000]:       title           : 02:31:14.065
  602. 17:17:55 T:153985024 M:118493184    INFO: ffmpeg[92DA000]:     Chapter #0.34: start 9305.296000, end 9701.692000
  603. 17:17:55 T:153985024 M:118493184    INFO: ffmpeg[92DA000]:     Metadata:
  604. 17:17:55 T:153985024 M:118493184    INFO: ffmpeg[92DA000]:       title           : 02:35:05.296
  605. 17:17:55 T:153985024 M:118493184    INFO: ffmpeg[92DA000]:     Stream #0.0(eng): Video: h264 (High), yuv420p, 1280x720, PAR 1:1 DAR 16:9, 23.98 fps, 24 tbr, 1k tbn, 47.95 tbc
  606. 17:17:55 T:153985024 M:118493184    INFO: ffmpeg[92DA000]:     Stream #0.1(eng): Audio: dca (DTS), 48000 Hz, 5.1, s16, 1536 kb/s
  607. 17:17:55 T:153985024 M:118493184    INFO: ffmpeg[92DA000]:     Stream #0.2(eng): Subtitle: [0][0][0][0] / 0x0000
  608. 17:17:55 T:153985024 M:118493184  NOTICE: Opening video stream: 0 source: 256
  609. 17:17:55 T:153985024 M:118493184  NOTICE: Creating video codec with codec id: 28
  610. 17:17:55 T:153985024 M:118493184   DEBUG: CDVDFactoryCodec: compiled in hardware support: VDADecoder:no VideoToolBoxDecoder:yes CrystalHD:no OpenMax:no
  611. 17:17:55 T:153985024 M:118493184    INFO: Apple VideoToolBox Decoder...
  612. 17:17:55 T:153985024 M:118493184   DEBUG: FactoryCodec - Video: vtb - Opening
  613. 17:17:55 T:153985024 M:118493184  NOTICE: Open - using avcC atom of size(40)
  614. 17:17:55 T:153985024 M:109891584   DEBUG: FactoryCodec - Video: vtb-h264 - Opened
  615. 17:17:55 T:153985024 M:109891584  NOTICE: Creating video thread
  616. 17:17:55 T:190943232 M:109883392   DEBUG: thread start, auto delete: 0
  617. 17:17:55 T:153985024 M:109883392  NOTICE: Opening audio stream: 1 source: 256
  618. 17:17:55 T:153985024 M:109883392  NOTICE: Finding audio codec for: 86020
  619. 17:17:55 T:153985024 M:109883392   DEBUG: FactoryCodec - Audio: PassthroughFFmpeg - Opening
  620. 17:17:55 T:153985024 M:109883392    INFO: CDVDAudioCodecPassthroughFFmpeg::Open - Won't transcode for HDMI
  621. 17:17:55 T:153985024 M:109883392   DEBUG: FactoryCodec - Audio: PassthroughFFmpeg - Failed
  622. 17:17:55 T:153985024 M:109883392   DEBUG: FactoryCodec - Audio: FFmpeg - Opening
  623. 17:17:55 T:153985024 M:109883392   DEBUG: FactoryCodec - Audio: FFmpeg - Opened
  624. 17:17:55 T:153985024 M:109883392  NOTICE: Creating audio thread
  625. 17:17:55 T:191475712 M:109879296   DEBUG: thread start, auto delete: 0
  626. 17:17:55 T:191475712 M:109879296  NOTICE: running thread: CDVDPlayerAudio::Process()
  627. 17:17:55 T:153985024 M:109879296  NOTICE: Opening Subtitle stream: 2 source: 256
  628. 17:17:55 T:153985024 M:109879296   DEBUG: FactoryCodec - Overlay: Text Subtitle Decoder - Opening
  629. 17:17:55 T:153985024 M:109879296   DEBUG: FactoryCodec - Overlay: Text Subtitle Decoder - Opened
  630. 17:17:55 T:153985024 M:109879296   DEBUG: ReadEditDecisionLists - Checking for edit decision lists (EDL) on local drive or remote share for: smb://PETER-SERVER/_HD.MOVIES/Avatar/cbgb-avatar.mkv
  631. 17:17:55 T:153985024 M:109883392   DEBUG: CDVDPlayer::SetCaching - caching state 2
  632. 17:17:55 T:191475712 M:109883392  NOTICE: Creating audio device with codec id: 86020, channels: 6, sample rate: 48000, no pass-through
  633. 17:17:55 T:191475712 M:109883392    INFO: AudioRendererFactory:  not a explicit device, trying to autodetect.
  634. 17:17:55 T:191475712 M:109883392   DEBUG: RemoveActiveDevice - Removing device 2
  635. 17:17:55 T:191475712 M:109883392   DEBUG: SetActiveDevice - SetActiveDevice from 0 to 2
  636. 17:17:55 T:191475712 M:109883392   DEBUG: RemoveActiveDevice - Removing device 0
  637. 17:17:55 T:191475712 M:109883392    INFO: CPCMRemap: Configured speaker layout: 2.0
  638. 17:17:55 T:191475712 M:109883392    INFO: CPCMRemap: I channel map: FL,FR,CE,LFE,SL,SR
  639. 17:17:55 T:191475712 M:109883392   DEBUG: CPCMRemap: Forcing side channel map to back channels
  640. 17:17:55 T:191475712 M:109883392    INFO: CPCMRemap: O channel map: FL,FR
  641. 17:17:55 T:191475712 M:109883392   DEBUG: CPCMRemap: Downmix normalization is disabled
  642. 17:17:55 T:191475712 M:109883392   DEBUG: CPCMRemap: FL = FL(1.000000) CE(0.707107) LFE(0.707107) BL(1.000000)
  643. 17:17:55 T:191475712 M:109883392   DEBUG: CPCMRemap: FR = FR(1.000000) CE(0.707107) LFE(0.707107) BR(1.000000)
  644. 17:17:55 T:191475712 M:109883392   DEBUG: CIOSAudioRenderer::InitializePCM: Requested channels changed from 6 to 2
  645. 17:17:55 T:191475712 M:109883392   DEBUG: CIOSCoreAudioDevice::SetupInfo: Remote/IO Output Stream Bus 1 Format [lpcm] Mixable 2 Channel 16-bit Signed Integer (48000Hz)
  646. 17:17:55 T:191475712 M:109883392   DEBUG: CIOSCoreAudioDevice::SetupInfo: Remote/IO Input Stream Bus 1 Format [lpcm] Mixable 2 Channel 16-bit Signed Integer (48000Hz)
  647. 17:17:55 T:191475712 M:109883392   DEBUG: CIOSAudioRenderer::Initialize: Renderer Configuration - Chunk Len: 2048, Max Cache: 196608 (1024ms).
  648. 17:17:55 T:191475712 M:109883392    INFO: CIOSAudioRenderer::Initialize: Successfully configured audio output.
  649. 17:17:55 T:191475712 M:109883392   DEBUG: CIOSAudioRenderer::Initialize - Channels: 6 - SampleRate: 48000 - SampleBit: 16 - Resample false - IsMusic false - IsPassthrough false - audioDevice: Default Output Device
  650. 17:17:55 T:191475712 M:109883392   DEBUG: CDVDPlayerAudio:: synctype set to 0: clock feedback
  651. 17:17:55 T:153985024 M:109883392   DEBUG: CDVDPlayer::HandleMessages - player started 1
  652. 17:17:55 T:190943232 M:105922560   DEBUG: LinuxRendererGL: Cleaning up GL resources
  653. 17:17:55 T:190943232 M:105922560  NOTICE: running thread: video_thread
  654. 17:17:55 T:190943232 M:105922560   DEBUG: CDVDPlayerVideo - CDVDMsg::GENERAL_SYNCHRONIZE
  655. 17:17:55 T:190943232 M:105922560    INFO: CDVDPlayerVideo - Stillframe left, switching to normal playback
  656. 17:17:55 T:165269504 M:104534016   DEBUG: CAnnouncementManager - Announcement: PlaybackStarted from xbmc
  657. 17:17:55 T:153985024 M:104058880   DEBUG: CheckPlayerInit - dropping packet type:2 dts:83000.000000 to get to start point at 167000.000000
  658. 17:17:55 T:153985024 M:100352000   DEBUG: CheckPlayerInit - dropping packet type:2 dts:42000.000000 to get to start point at 167000.000000
  659. 17:17:55 T:153985024 M:100352000   DEBUG: CheckPlayerInit - dropping packet type:2 dts:125000.000000 to get to start point at 167000.000000
  660. 17:17:55 T:190943232 M:100352000   DEBUG: CDVDPlayerVideo - CDVDMsg::GENERAL_RESYNC(167000.000000, 0)
  661. 17:17:56 T:165269504 M: 98709504   DEBUG: CGUIInfoManager::SetCurrentMovie(smb://PETER-SERVER/_HD.MOVIES/Avatar/cbgb-avatar.mkv)
  662. 17:17:56 T:165269504 M: 93138944   DEBUG: GetMovieId (smb://PETER-SERVER/_HD.MOVIES/Avatar/cbgb-avatar.mkv), query = select idMovie from movie where idFile=22
  663. 17:17:56 T:165269504 M: 89448448   DEBUG: Previous line repeats 1 times.
  664. 17:17:56 T:165269504 M: 89448448   DEBUG: SetCurrentMovie, got movie info!
  665. 17:17:56 T:165269504 M: 89448448   DEBUG:   Title = Avatar
  666. 17:17:56 T:190943232 M: 83873792   DEBUG: GetPicture - VTBDecoderDecode dts(-4503599627370496.000000), pts(-4503599627370496.000000), old_pts(29571000.000000)
  667. 17:17:56 T:190943232 M: 83873792  NOTICE:  fps: 23.976024, pwidth: 1280, pheight: 720, dwidth: 1280, dheight: 720
  668. 17:17:56 T:190943232 M: 83873792   DEBUG: OutputPicture - change configuration. 1280x720. framerate: 23.98. format: BGRA
  669. 17:17:56 T:165269504 M: 83873792   DEBUG: ------ Window Deinit (DialogBusy.xml) ------
  670. 17:17:56 T:190943232 M: 83636224 WARNING: CRenderManager::Configure - timeout waiting for previous frame
  671. 17:17:56 T:190943232 M: 83636224  NOTICE: Display resolution DESKTOP : 1280x720 (12)
  672. 17:17:56 T:165269504 M: 84013056   DEBUG: Activating window ID: 12005
  673. 17:17:56 T:165269504 M: 84013056   DEBUG: Checking if window ID 12005 is locked.
  674. 17:17:56 T:165269504 M: 84013056   DEBUG: ------ Window Deinit (MyVideoNav.xml) ------
  675. 17:17:56 T:165269504 M: 84013056   DEBUG: ------ Window Init (VideoFullScreen.xml) ------
  676. 17:17:56 T:165269504 M: 84013056    INFO: Loading skin file: VideoFullScreen.xml
  677. 17:17:56 T:165269504 M: 84013056  NOTICE: Using GL_TEXTURE_2D
  678. 17:17:56 T:165269504 M: 84013056   DEBUG: GL: Requested render method: 0
  679. 17:17:56 T:165269504 M: 84013056  NOTICE: GL: Using CoreVideoRef RGBA render method
  680. 17:17:56 T:165269504 M: 84013056  NOTICE: GL: NPOT texture support detected
  681. 17:17:56 T:153985024 M: 94560256   DEBUG: CDVDPlayer::HandleMessages - player started 2
  682. 17:17:56 T:153985024 M: 94560256   DEBUG: CDVDPlayer::SetCaching - caching state 3
  683. 17:17:56 T:191475712 M: 92692480   DEBUG: CDVDPlayerAudio:: Discontinuity - was:15435.416667, should be:0.000000, error:-15435.416667
  684. 17:17:56 T:191475712 M: 92692480   DEBUG: CDVDPlayerAudio - CDVDMsg::GENERAL_RESYNC(10000.000000, 1)
  685. 17:17:56 T:191475712 M: 77594624   DEBUG: CDVDPlayerAudio:: Discontinuity - was:60026.750000, should be:193988.378586, error:133961.628586
  686. 17:17:56 T:153985024 M: 77582336   DEBUG: CDVDPlayer::SetCaching - caching state 0
  687. 17:17:59 T:165269504 M: 96665600  NOTICE: CDVDPlayer::CloseFile()
  688. 17:17:59 T:153985024 M: 96665600   DEBUG: CAnnouncementManager - Announcement: PlaybackSpeedChanged from xbmc
  689. 17:17:59 T:165269504 M: 96665600  NOTICE: DVDPlayer: waiting for threads to exit
  690. 17:17:59 T:153985024 M: 96665600  NOTICE: CDVDPlayer::OnExit()
  691. 17:17:59 T:153985024 M: 96665600  NOTICE: DVDPlayer: closing audio stream
  692. 17:17:59 T:153985024 M: 96665600  NOTICE: Closing audio stream
  693. 17:17:59 T:153985024 M: 96665600  NOTICE: Waiting for audio thread to exit
  694. 17:17:59 T:191475712 M: 96665600  NOTICE: thread end: CDVDPlayerAudio::OnExit()
  695. 17:17:59 T:191475712 M: 96665600   DEBUG: Thread 191475712 terminating
  696. 17:17:59 T:153985024 M: 96669696  NOTICE: Closing audio device
  697. 17:17:59 T:153985024 M: 96669696    INFO: CIOSAudioRenderer::Deinitialize: Renderer has been shut down.
  698. 17:17:59 T:153985024 M: 96669696    INFO: Previous line repeats 1 times.
  699. 17:17:59 T:153985024 M: 96669696  NOTICE: Deleting audio codec
  700. 17:17:59 T:153985024 M: 96669696  NOTICE: DVDPlayer: closing video stream
  701. 17:17:59 T:153985024 M: 96669696  NOTICE: Closing video stream
  702. 17:17:59 T:153985024 M: 96669696  NOTICE: waiting for video thread to exit
  703. 17:17:59 T:190943232 M: 96669696  NOTICE: thread end: video_thread
  704. 17:17:59 T:190943232 M: 96669696   DEBUG: Thread 190943232 terminating
  705. 17:17:59 T:153985024 M: 96673792  NOTICE: deleting video codec
  706. 17:17:59 T:153985024 M:108675072  NOTICE: DVDPlayer: closing subtitle stream
  707. 17:17:59 T:153985024 M:108675072  NOTICE: Closing subtitle stream
  708. 17:17:59 T:153985024 M:108675072  NOTICE: CDVDPlayer::OnExit() deleting demuxer
  709. 17:17:59 T:153985024 M:108449792  NOTICE: CDVDPlayer::OnExit() deleting input stream
  710. 17:17:59 T:153985024 M:108449792   DEBUG: CFileSMB::Close closing fd 10000
  711. 17:17:59 T:153985024 M:108449792   DEBUG: CAnnouncementManager - Announcement: PlaybackStopped from xbmc
  712. 17:17:59 T:153985024 M:108449792   DEBUG: Thread 153985024 terminating
  713. 17:17:59 T:165269504 M:108462080  NOTICE: DVDPlayer: finished waiting
  714. 17:17:59 T:165269504 M:108462080   DEBUG: LinuxRendererGL: Cleaning up GL resources
  715. 17:17:59 T:165269504 M:116088832   DEBUG: CGUIWindowManager::PreviousWindow: Deactivate
  716. 17:17:59 T:165269504 M:116088832   DEBUG: ------ Window Deinit (VideoFullScreen.xml) ------
  717. 17:17:59 T:165269504 M:116084736   DEBUG: CGUIWindowManager::PreviousWindow: Activate new
  718. 17:17:59 T:165269504 M:116084736   DEBUG: ------ Window Init (MyVideoNav.xml) ------
  719. 17:17:59 T:165269504 M:116084736    INFO: Loading skin file: MyVideoNav.xml
  720. 17:18:00 T:165269504 M:115769344   DEBUG: CGUIMediaWindow::GetDirectory (videodb://1/2/)
  721. 17:18:00 T:165269504 M:115769344   DEBUG:   ParentPath = [videodb://1/2/]
  722. 17:18:00 T:165269504 M:115769344   DEBUG: RunQuery took 1 ms for 0 items query: SELECT sets.idSet,sets.strSet,COUNT(1) AS c,count(files.playCount) FROM sets JOIN setlinkmovie ON sets.idSet=setlinkmovie.idSet JOIN movie ON setlinkmovie.idMovie=movie.idMovie JOIN files ON files.idFile=movie.idFile  GROUP BY sets.idSet HAVING c>1
  723. 17:18:00 T:165269504 M:115769344   DEBUG: RunQuery took 89 ms for 244 items query: select * from movieview WHERE movieview.idMovie NOT IN (SELECT idMovie FROM setlinkmovie s1 JOIN(SELECT idSet, COUNT(1) AS c FROM setlinkmovie GROUP BY idSet HAVING c>1) s2 ON s2.idSet=s1.idSet)
  724. 17:18:01 T:165269504 M:140206080   DEBUG: Saving fileitems [videodb://1/2/]
  725. 17:18:01 T:165269504 M:140206080   DEBUG:   -- items: 245, sort method: 25, ascending: true
  726. 17:18:02 T:137916416 M:140201984   DEBUG: thread start, auto delete: 0
  727. 17:18:02 T:165269504 M:119406592  NOTICE: CDVDPlayer::CloseFile()
  728. 17:18:02 T:165269504 M:119406592 WARNING: CDVDMessageQueue(player)::Put MSGQ_NOT_INITIALIZED
  729. 17:18:02 T:165269504 M:119406592  NOTICE: DVDPlayer: waiting for threads to exit
  730. 17:18:02 T:165269504 M:119406592  NOTICE: DVDPlayer: finished waiting
  731. 17:18:02 T:165269504 M:119406592   DEBUG: LinuxRendererGL: Cleaning up GL resources
  732. 17:18:02 T:165269504 M:119410688   DEBUG: CGUIAudioManager::Initialize
  733. 17:18:02 T:152641536 M:119410688   DEBUG: DoWork - Saving file state for video item smb://PETER-SERVER/_HD.MOVIES/Avatar/cbgb-avatar.mkv
  734. 17:18:02 T:165269504 M:119283712   DEBUG: CGUIAudioManager::Initialize
  735. 17:18:02 T:152641536 M:119042048   DEBUG: CAnnouncementManager - Announcement: NewPlayCount from xbmc
  736. 17:18:07 T:137916416 M:118214656   DEBUG: Thread 137916416 terminating
  737. 17:18:25 T:165269504 M:118345728   DEBUG: SECTION:UnloadDelayed(SECTION: LCODE)
  738. 17:18:29 T:165269504 M:118345728   DEBUG: SECTION:UnloadDelayed(DLL: special://xbmcbin/system/players/dvdplayer/avcore-0-arm-osx.so)
  739. 17:18:29 T:165269504 M:118345728   DEBUG: Unloading: avcore-0-arm-osx.so
  740. 17:18:29 T:165269504 M:118345728   DEBUG: SECTION:UnloadDelayed(DLL: special://xbmcbin/system/players/dvdplayer/avcodec-52-arm-osx.so)
  741. 17:18:29 T:165269504 M:118345728   DEBUG: Unloading: avcodec-52-arm-osx.so
  742. 17:18:30 T:165269504 M:118345728   DEBUG: SECTION:UnloadDelayed(DLL: special://xbmcbin/system/players/dvdplayer/avformat-52-arm-osx.so)
  743. 17:18:30 T:165269504 M:118345728   DEBUG: Unloading: avformat-52-arm-osx.so
  744. 17:18:32 T:152641536 M:118378496   DEBUG: Thread 152641536 terminating (autodelete)
  745. 17:19:48 T:165269504 M:114872320  NOTICE: Samba is idle. Closing the remaining connections
clone this paste RAW Paste Data