Pastebin launched a little side project called VERYVIRAL.com, check it out ;-) Want more features on Pastebin? Sign Up, it's FREE!
Guest

Cosmos: Bir Uzay Serüveni - National Geographic Channel

By: a guest on Mar 11th, 2014  |  syntax: None  |  size: 3.61 KB  |  views: 64  |  expires: Never
download  |  raw  |  embed  |  report abuse  |  print
Text below is selected. Please press Ctrl+C to copy to your clipboard. (⌘+C on Mac)
  1. Hakkında çok az şey bildiğimiz Kozmos artık daha yakın.
  2. Haluk Bilginer'in seslendirmesiyle Cosmos: Bir Uzay Serüveni; evrenin görkemini ortaya çıkartmak ve Kozmik Takvim ve Hayal Gücü Gemisi de dahil olmak üzere orijinal serilerin bilinen yönlerini tekrar keşfetmek için bilimsel hikaye anlatımının yeni yollarını bulacak.
  3. Şüpheci yaklaşımlarla merakı bir araya getirerek ve bilimi görsel, duygusal, spiritüel elementlerle dokuyarak daha önce yaşamadığımız deneyimler yaşayacağız.
  4.  
  5. General
  6. Unique ID                                : 201706707960189596639447248220196718736 (0x97BF4C83B0A44B3C99BDBFE4B75C4890)
  7. Complete name                            : Cosmos.Bir.Uzay.Seruveni.S01E01.720p.HDTV.X264-MED.mkv
  8. Format                                   : Matroska
  9. Format version                           : Version 4 / Version 2
  10. File size                                : 1.21 GiB
  11. Duration                                 : 43mn 47s
  12. Overall bit rate                         : 3 954 Kbps
  13. Encoded date                             : UTC 2014-03-11 18:13:43
  14. Writing application                      : mkvmerge v6.8.0 ('Theme for Great Cities') 64bit built on Mar  2 2014 21:34:26
  15. Writing library                          : libebml v1.3.0 + libmatroska v1.4.1
  16.  
  17. Video
  18. ID                                       : 1
  19. Format                                   : AVC
  20. Format/Info                              : Advanced Video Codec
  21. Format profile                           : High@L4.1
  22. Format settings, CABAC                   : Yes
  23. Format settings, ReFrames                : 5 frames
  24. Codec ID                                 : V_MPEG4/ISO/AVC
  25. Duration                                 : 43mn 47s
  26. Bit rate                                 : 3 684 Kbps
  27. Width                                    : 1 280 pixels
  28. Height                                   : 720 pixels
  29. Display aspect ratio                     : 16:9
  30. Frame rate mode                          : Constant
  31. Frame rate                               : 23.976 fps
  32. Color space                              : YUV
  33. Chroma subsampling                       : 4:2:0
  34. Bit depth                                : 8 bits
  35. Scan type                                : Progressive
  36. Bits/(Pixel*Frame)                       : 0.167
  37. Stream size                              : 1.13 GiB (93%)
  38. Writing library                          : x264 core 142 r2389 956c8d8
  39. Default                                  : No
  40. Forced                                   : No
  41.  
  42. Audio
  43. ID                                       : 2
  44. Format                                   : AC-3
  45. Format/Info                              : Audio Coding 3
  46. Mode extension                           : CM (complete main)
  47. Format settings, Endianness              : Big
  48. Codec ID                                 : A_AC3
  49. Duration                                 : 43mn 47s
  50. Bit rate mode                            : Constant
  51. Bit rate                                 : 192 Kbps
  52. Channel count                            : 2 channels
  53. Channel positions                        : Front: L R
  54. Sampling rate                            : 48.0 KHz
  55. Bit depth                                : 16 bits
  56. Compression mode                         : Lossy
  57. Delay relative to video                  : -84ms
  58. Stream size                              : 60.1 MiB (5%)
  59. Language                                 : Turkish
  60. Default                                  : Yes
  61. Forced                                   : Yes
  62.  
  63. magnet:?xt=urn:btih:E5747520A33FC2B84A6FDECE5A8439D3E22C62D5
  64.  
  65. http://kickass.to/cosmos-bir-uzay-seruveni-s01e01-720p-hdtv-x264-med-mkv-t8867458.html