Pastebin launched a little side project called HostCabi.net, check it out ;-)Pastebin is 300% more awesome when you are logged in. Sign Up, it's FREE!
Guest

Game of Thorones MediaInfo

By: a guest on Oct 21st, 2013  |  syntax: None  |  size: 11.13 KB  |  hits: 43  |  expires: Never
download  |  raw  |  embed  |  report abuse  |  print
Text below is selected. Please press Ctrl+C to copy to your clipboard. (⌘+C on Mac)
  1. General
  2. ID                                       : 0 (0x0)
  3. Complete name                            : C:\Media\Game of Thrones\Season 1\Ep 1 Winter is Coming.m2ts
  4. Format                                   : BDAV
  5. Format/Info                              : Blu-ray Video
  6. File size                                : 16.2 GiB
  7. Duration                                 : 1h 1mn
  8. Overall bit rate mode                    : Variable
  9. Overall bit rate                         : 37.6 Mbps
  10. Maximum Overall bit rate                 : 48.0 Mbps
  11.  
  12. Video #1
  13. ID                                       : 4113 (0x1011)
  14. Menu ID                                  : 1 (0x1)
  15. Format                                   : AVC
  16. Format/Info                              : Advanced Video Codec
  17. Format profile                           : High@L4.1
  18. Format settings, CABAC                   : Yes
  19. Format settings, ReFrames                : 4 frames
  20. Codec ID                                 : 27
  21. Duration                                 : 1h 1mn
  22. Bit rate mode                            : Variable
  23. Maximum bit rate                         : 35.0 Mbps
  24. Width                                    : 1 920 pixels
  25. Height                                   : 1 080 pixels
  26. Display aspect ratio                     : 16:9
  27. Frame rate                               : 23.976 fps
  28. Color space                              : YUV
  29. Chroma subsampling                       : 4:2:0
  30. Bit depth                                : 8 bits
  31. Scan type                                : Progressive
  32.  
  33. Video #2
  34. ID                                       : 6912 (0x1B00)
  35. Menu ID                                  : 1 (0x1)
  36. Format                                   : AVC
  37. Format/Info                              : Advanced Video Codec
  38. Format profile                           : High@L3.2
  39. Format settings, CABAC                   : Yes
  40. Format settings, ReFrames                : 4 frames
  41. Format settings, GOP                     : M=3, N=12
  42. Codec ID                                 : 27
  43. Duration                                 : 1h 1mn
  44. Bit rate mode                            : Constant
  45. Nominal bit rate                         : 1 000 Kbps
  46. Width                                    : 720 pixels
  47. Height                                   : 480 pixels
  48. Display aspect ratio                     : 16:9
  49. Frame rate                               : 23.976 fps
  50. Standard                                 : NTSC
  51. Color space                              : YUV
  52. Chroma subsampling                       : 4:2:0
  53. Bit depth                                : 8 bits
  54. Scan type                                : Progressive
  55. Bits/(Pixel*Frame)                       : 0.121
  56.  
  57. Audio #1
  58. ID                                       : 4352 (0x1100)
  59. Menu ID                                  : 1 (0x1)
  60. Format                                   : DTS
  61. Format/Info                              : Digital Theater Systems
  62. Format profile                           : MA / Core
  63. Mode                                     : 16
  64. Format settings, Endianness              : Big
  65. Muxing mode                              : Stream extension
  66. Codec ID                                 : 134
  67. Duration                                 : 1h 1mn
  68. Bit rate mode                            : Variable
  69. Bit rate                                 : Unknown / 1 509 Kbps
  70. Channel(s)                               : 6 channels
  71. Channel positions                        : Front: L C R, Side: L R, LFE
  72. Sampling rate                            : 48.0 KHz
  73. Bit depth                                : 24 bits
  74. Compression mode                         : Lossless / Lossy
  75.  
  76. Audio #2
  77. ID                                       : 4353 (0x1101)
  78. Menu ID                                  : 1 (0x1)
  79. Format                                   : DTS
  80. Format/Info                              : Digital Theater Systems
  81. Mode                                     : 16
  82. Format settings, Endianness              : Big
  83. Codec ID                                 : 130
  84. Duration                                 : 1h 1mn
  85. Bit rate mode                            : Constant
  86. Bit rate                                 : 768 Kbps
  87. Channel(s)                               : 6 channels
  88. Channel positions                        : Front: L C R, Side: L R, LFE
  89. Sampling rate                            : 48.0 KHz
  90. Bit depth                                : 24 bits
  91. Compression mode                         : Lossy
  92. Stream size                              : 338 MiB (2%)
  93.  
  94. Audio #3
  95. ID                                       : 4354 (0x1102)
  96. Menu ID                                  : 1 (0x1)
  97. Format                                   : DTS
  98. Format/Info                              : Digital Theater Systems
  99. Mode                                     : 16
  100. Format settings, Endianness              : Big
  101. Codec ID                                 : 130
  102. Duration                                 : 1h 1mn
  103. Bit rate mode                            : Constant
  104. Bit rate                                 : 768 Kbps
  105. Channel(s)                               : 2 channels
  106. Channel positions                        : Front: L R
  107. Sampling rate                            : 48.0 KHz
  108. Bit depth                                : 24 bits
  109. Compression mode                         : Lossy
  110. Stream size                              : 338 MiB (2%)
  111.  
  112. Audio #4
  113. ID                                       : 4355 (0x1103)
  114. Menu ID                                  : 1 (0x1)
  115. Format                                   : DTS
  116. Format/Info                              : Digital Theater Systems
  117. Mode                                     : 16
  118. Format settings, Endianness              : Big
  119. Codec ID                                 : 130
  120. Duration                                 : 1h 1mn
  121. Bit rate mode                            : Constant
  122. Bit rate                                 : 768 Kbps
  123. Channel(s)                               : 6 channels
  124. Channel positions                        : Front: L C R, Side: L R, LFE
  125. Sampling rate                            : 48.0 KHz
  126. Bit depth                                : 24 bits
  127. Compression mode                         : Lossy
  128. Stream size                              : 338 MiB (2%)
  129.  
  130. Audio #5
  131. ID                                       : 4356 (0x1104)
  132. Menu ID                                  : 1 (0x1)
  133. Format                                   : DTS
  134. Format/Info                              : Digital Theater Systems
  135. Mode                                     : 16
  136. Format settings, Endianness              : Big
  137. Codec ID                                 : 130
  138. Duration                                 : 1h 1mn
  139. Bit rate mode                            : Constant
  140. Bit rate                                 : 768 Kbps
  141. Channel(s)                               : 2 channels
  142. Channel positions                        : Front: L R
  143. Sampling rate                            : 48.0 KHz
  144. Bit depth                                : 24 bits
  145. Compression mode                         : Lossy
  146. Stream size                              : 338 MiB (2%)
  147.  
  148. Audio #6
  149. ID                                       : 4357 (0x1105)
  150. Menu ID                                  : 1 (0x1)
  151. Format                                   : DTS
  152. Format/Info                              : Digital Theater Systems
  153. Mode                                     : 16
  154. Format settings, Endianness              : Big
  155. Codec ID                                 : 130
  156. Duration                                 : 1h 1mn
  157. Bit rate mode                            : Constant
  158. Bit rate                                 : 768 Kbps
  159. Channel(s)                               : 6 channels
  160. Channel positions                        : Front: L C R, Side: L R, LFE
  161. Sampling rate                            : 48.0 KHz
  162. Bit depth                                : 24 bits
  163. Compression mode                         : Lossy
  164. Stream size                              : 338 MiB (2%)
  165.  
  166. Audio #7
  167. ID                                       : 6656 (0x1A00)
  168. Menu ID                                  : 1 (0x1)
  169. Format                                   : DTS
  170. Format/Info                              : Digital Theater Systems
  171. Format profile                           : Express
  172. Mode                                     : 16
  173. Format settings, Endianness              : Big
  174. Codec ID                                 : 162
  175. Duration                                 : 1h 1mn
  176. Bit rate mode                            : Constant
  177. Bit rate                                 : 192 Kbps
  178. Channel(s)                               : 2 channels
  179. Channel positions                        : Front: L R
  180. Sampling rate                            : 48.0 KHz
  181. Bit depth                                : 24 bits
  182. Compression mode                         : Lossy
  183. Stream size                              : 84.6 MiB (1%)
  184.  
  185. Text #1
  186. ID                                       : 4608 (0x1200)
  187. Menu ID                                  : 1 (0x1)
  188. Format                                   : PGS
  189. Codec ID                                 : 144
  190. Delay relative to video                  : 10s 552ms
  191.  
  192. Text #2
  193. ID                                       : 4609 (0x1201)
  194. Menu ID                                  : 1 (0x1)
  195. Format                                   : PGS
  196. Codec ID                                 : 144
  197.  
  198. Text #3
  199. ID                                       : 4610 (0x1202)
  200. Menu ID                                  : 1 (0x1)
  201. Format                                   : PGS
  202. Codec ID                                 : 144
  203.  
  204. Text #4
  205. ID                                       : 4611 (0x1203)
  206. Menu ID                                  : 1 (0x1)
  207. Format                                   : PGS
  208. Codec ID                                 : 144
  209.  
  210. Text #5
  211. ID                                       : 4612 (0x1204)
  212. Menu ID                                  : 1 (0x1)
  213. Format                                   : PGS
  214. Codec ID                                 : 144
  215.  
  216. Text #6
  217. ID                                       : 4613 (0x1205)
  218. Menu ID                                  : 1 (0x1)
  219. Format                                   : PGS
  220. Codec ID                                 : 144
  221.  
  222. Text #7
  223. ID                                       : 4614 (0x1206)
  224. Menu ID                                  : 1 (0x1)
  225. Format                                   : PGS
  226. Codec ID                                 : 144
  227.  
  228. Text #8
  229. ID                                       : 4615 (0x1207)
  230. Menu ID                                  : 1 (0x1)
  231. Format                                   : PGS
  232. Codec ID                                 : 144
  233.  
  234. Text #9
  235. ID                                       : 4616 (0x1208)
  236. Menu ID                                  : 1 (0x1)
  237. Format                                   : PGS
  238. Codec ID                                 : 144
  239.  
  240. Text #10
  241. ID                                       : 4617 (0x1209)
  242. Menu ID                                  : 1 (0x1)
  243. Format                                   : PGS
  244. Codec ID                                 : 144
  245.  
  246. Text #11
  247. ID                                       : 4618 (0x120A)
  248. Menu ID                                  : 1 (0x1)
  249. Format                                   : PGS
  250. Codec ID                                 : 144