Pastebin launched a little side project called VERYVIRAL.com, check it out ;-) Want more features on Pastebin? Sign Up, it's FREE!
Guest

sintel 2k info

By: a guest on Jun 8th, 2011  |  syntax: None  |  size: 2.79 KB  |  views: 96  |  expires: Never
download  |  raw  |  embed  |  report abuse  |  print
Text below is selected. Please press Ctrl+C to copy to your clipboard. (⌘+C on Mac)
  1. General
  2. Complete name                    : C:\Documents and Settings\Owner\Desktop\Sintel - Third Open Movie by Blender Foundation [www.keepvid.com].mp4
  3. Format                           : MPEG-4
  4. Format profile                   : Base Media / Version 2
  5. Codec ID                         : mp42
  6. File size                        : 387 MiB
  7. Duration                         : 14mn 47s
  8. Overall bit rate                 : 3 660 Kbps
  9. Encoded date                     : UTC 2010-09-29 12:52:03
  10. Tagged date                      : UTC 2010-09-29 12:52:03
  11. gsst                             : 0
  12. gstd                             : 887998
  13. gssd                             : B400F7304MH1307506796072200
  14. gshh                             : o-o.preferred.google-man1.v17.lscache1.c.youtube.com
  15.  
  16. Video
  17. ID                               : 1
  18. Format                           : AVC
  19. Format/Info                      : Advanced Video Codec
  20. Format profile                   : High@L4.0
  21. Format settings, CABAC           : Yes
  22. Format settings, ReFrames        : 1 frame
  23. Codec ID                         : avc1
  24. Codec ID/Info                    : Advanced Video Coding
  25. Duration                         : 14mn 47s
  26. Bit rate mode                    : Variable
  27. Bit rate                         : 3 526 Kbps
  28. Maximum bit rate                 : 14.0 Mbps
  29. Width                            : 2 048 pixels
  30. Height                           : 872 pixels
  31. Display aspect ratio             : 2.35:1
  32. Frame rate mode                  : Variable
  33. Frame rate                       : 24.000 fps
  34. Minimum frame rate               : 23.810 fps
  35. Maximum frame rate               : 24.390 fps
  36. Color space                      : YUV
  37. Chroma subsampling               : 4:2:0
  38. Bit depth                        : 8 bits
  39. Scan type                        : Progressive
  40. Bits/(Pixel*Frame)               : 0.082
  41. Stream size                      : 373 MiB (96%)
  42. Tagged date                      : UTC 2010-09-29 12:52:37
  43.  
  44. Audio
  45. ID                               : 2
  46. Format                           : AAC
  47. Format/Info                      : Advanced Audio Codec
  48. Format version                   : Version 4
  49. Format profile                   : LC
  50. Format settings, SBR             : No
  51. Codec ID                         : 40
  52. Duration                         : 14mn 47s
  53. Bit rate mode                    : Variable
  54. Bit rate                         : 128 Kbps
  55. Maximum bit rate                 : 159 Kbps
  56. Channel(s)                       : 2 channels
  57. Channel positions                : Front: L R
  58. Sampling rate                    : 44.1 KHz
  59. Stream size                      : 13.5 MiB (3%)
  60. Title                            : (C) 2007 Google Inc. v08.13.2007.
  61. Encoded date                     : UTC 2010-09-29 12:52:24
  62. Tagged date                      : UTC 2010-09-29 12:52:37